.
Авторизация | Регистрация
Хочешь лучшие торренты? Добавь свой email!
Добавить

Торрент скачать бесплатно

» » Граница пустоты: Сад грешников (фильм первый) / Gekijo ban Kara no kyokai: Dai issho - Fukan fukei (2007) BDRip 3D [H.264 / 1080p] [Вертикальная анаморфная стереопара] торрент скачать бесплатно




    Граница пустоты: Сад грешников (фильм первый) / Gekijo ban Kara no kyokai: Dai issho - Fukan fukei (2007) BDRip 3D [H.264 / 1080p] [Вертикальная анаморфная стереопара] торрент скачать бесплатно

    Опубликовал: Админ | Дата: 11-09-2017, 05:00 | Просмотров: 2

    Производство: Япония/Aniplex, Notes, Ufotable
    Жанр: аниме, мультфильм, ужасы, триллер
    Режиссер: Эи Аоки
    Персонажи: Маая Сакамото, Кэнъити Судзумура, Такако Хонда, Аюми Фудзимура, Риэ Танака, Эри Накао, Сюдзо Накамура

    Описание

    Сики Рёги — странная девушка из древнего и влиятельного рода. Белая ворона, сказал кто то из толпы, к чему не понятно. В любую погоду она ходит в кимоно, не любит общаться с посторонними, а из развлечений предпочитает прогулки по самым темным уголкам ночного Токио. Более-менее понимают ее только двое — циничная волшебница Токо Аодзаки и скромный гений оперативной работы Микия Кокуто. Вот такая веселая троица под чутким руководством Токо работает в агентстве Храм пустоты, занимаясь всем, что приносит деньги — от дизайна до сверхъестественных преступлений.
    В сентябре 1998 года Токио потрясла цепь загадочных самоубийств молодых девушек, бросавшихся одна за другой с крыши заброшенного здания компании Фудзё. После пятой жертвы к делу подключается Храм пустоты, и Сики, наконец, получает возможность проявить свой уникальный дар.

    Дата мировой премьеры: 1 декабря 2007
    Релиз от: NNM-Club, RG Всё лучшее - детям!
    Продолжительность: 00: 49: 09
    Качество видео: BDRip 3D
    Перевод: Двуголосый закадровый, любительский
    Озвучка: Anilibria
    Субтитры: Русские - Полные (Вшитые отключаемые, отдельным файлом)
    Видео: AVC/H.264, 1920x1080, ~7092 Кбит/сек
    Аудио 1: AC3 5.1 640 Кбит/сек - Русский
    Аудио 2: AC3 5.1 640 Кбит/сек - Японский

    Общее
    Уникальный идентификатор : 235177646446065609416630551614713704716 (0xB0ED913102D3EC3BA69C382A7DAF310C)
    Полное имя : E: tempTHE_GARDEN_OF_SINNERS-OVERLOOKING_VIEV_3DTHE_GARDEN_OF_SINNERS-OVERLOOKING_VIEV_3D.mkv
    Формат : Matroska
    Версия формата : Version 2
    Размер файла : 2, 93 Гбайт
    Продолжительность : 49 м. 9 с.
    Общий поток : 8542 Кбит/сек
    Название фильма : THE_GARDEN_OF_SINNERS-OVERLOOKING_VIEV_3D_Half_O/U
    Дата кодирования : UTC 2017-09-08 09: 56: 05
    Программа кодирования : mkvmerge v5.8.0 (\'No Sleep/Pillow\') built on Sep 2 2012 15: 37: 04
    Библиотека кодирования : libebml v1.2.3 + libmatroska v1.3.0
    Видео
    Идентификатор : 1
    Формат : AVC
    Формат/Информация : Advanced Video Codec
    Профиль формата : High@L4.1
    Параметр CABAC формата : Да
    Параметр ReFrames формата : 4 кадра
    Идентификатор кодека : V_MPEG4/ISO/AVC
    Продолжительность : 49 м. 9 с.
    Битрейт : 7092 Кбит/сек
    Ширина : 1920 пикселей
    Высота : 1080 пикселей
    Соотношение сторон : 16: 9
    Режим частоты кадров : Постоянный
    Частота кадров : 23, 976 (24000/1001) кадра/сек
    Цветовое пространство : YUV
    Субдискретизация насыщенности : 4: 2: 0
    Битовая глубина : 8 бит
    Тип развёртки : Прогрессивная
    Бит/(Пиксели*Кадры) : 0.143
    Размер потока : 2, 43 Гбайт (83%)
    Заголовок : rip by I/N
    Библиотека кодирования : x264 core 148 r2744 b97ae06
    Настройки программы : cabac=1/ref=4/deblock=1: -3: -3/analyse=0x3: 0x133/me=umh/subme=10/psy=1/psy_rd=1.00: 0.15/mixed_ref=1/me_range=64/chroma_me=1/trellis=2/8x8dct=1/cqm=0/deadzone=21, 11/fast_pskip=0/chroma_qp_offset=-3/threads=12/lookahead_threads=3/sliced_threads=0/nr=0/decimate=1/interlaced=0/bluray_compat=0/constrained_intra=0/bframes=16/b_pyramid=2/b_adapt=2/b_bias=0/direct=3/weightb=1/open_gop=0/weightp=2/keyint=250/keyint_min=23/scenecut=40/intra_refresh=0/rc_lookahead=60/rc=crf/mbtree=1/crf=12.5/qcomp=0.60/qpmin=0/qpmax=69/qpstep=4/vbv_maxrate=40000/vbv_bufsize=30000/crf_max=0.0/nal_hrd=none/filler=0/frame-packing=4/ip_ratio=1.40/aq=1: 1.00
    Default : Да
    Forced : Нет
    Цветовой диапазон : Limited
    Основные цвета : BT.709
    Характеристики трансфера : BT.709
    Коэффициенты матрицы : BT.709
    Аудио #1
    Идентификатор : 2
    Формат : AC-3
    Формат/Информация : Audio Coding 3
    Параметр Endianness формата : Big
    Идентификатор кодека : A_AC3
    Продолжительность : 49 м. 9 с.
    Вид битрейта : Постоянный
    Битрейт : 640 Кбит/сек
    Каналы : 6 каналов
    Расположение каналов : Front: L C R, Side: L R, LFE
    Частота : 48, 0 КГц
    Частота кадров : 31, 250 кадров/сек (1536 spf)
    Битовая глубина : 16 бит
    Метод сжатия : С потерями
    Размер потока : 225 Мбайт (7%)
    Заголовок : DVO - Anilibria
    Язык : Russian
    ServiceKind/String : Complete Main
    Default : Да
    Forced : Нет
    Аудио #2
    Идентификатор : 3
    Формат : AC-3
    Формат/Информация : Audio Coding 3
    Параметр Endianness формата : Big
    Идентификатор кодека : A_AC3
    Продолжительность : 49 м. 9 с.
    Вид битрейта : Постоянный
    Битрейт : 640 Кбит/сек
    Каналы : 6 каналов
    Расположение каналов : Front: L C R, Side: L R, LFE
    Частота : 48, 0 КГц
    Частота кадров : 31, 250 кадров/сек (1536 spf)
    Битовая глубина : 16 бит
    Метод сжатия : С потерями
    Размер потока : 225 Мбайт (7%)
    Заголовок : Original
    Язык : Japanese
    ServiceKind/String : Complete Main
    Default : Нет
    Forced : Нет
    Текст
    Идентификатор : 4
    Формат : UTF-8
    Идентификатор кодека : S_TEXT/UTF8
    Идентификатор кодека/Информация : UTF-8 Plain Text
    Заголовок : Full
    Язык : Russian
    Default : Да
    Forced : Нет
    Меню
    00: 00: 00.000 : en: 1 - 0: 00: 00
    00: 02: 21.850 : en: 2 - 0: 02: 22
    00: 04: 13.836 : en: 3 - 0: 04: 14
    00: 14: 00.130 : en: 4 - 0: 14: 00
    00: 18: 30.275 : en: 5 - 0: 18: 30
    00: 25: 14.221 : en: 6 - 0: 25: 14
    00: 29: 16.671 : en: 7 - 0: 29: 17
    00: 37: 25.952 : en: 8 - 0: 37: 26
    00: 43: 21.181 : en: 9 - 0: 43: 21
    00: 47: 26.718 : en: 10 - 0: 47: 27
    00: 49: 08.070 : en: 11 - 0: 49: 08


    Онлайн видео Граница пустоты: Сад грешников (фильм первый)



    Граница пустоты: Сад грешников (фильм первый)/Gekijo ban Kara no kyokai: Dai issho - Fukan fukei (2007) BDRip 3D [H.264/1080p] [Вертикальная анаморфная стереопара]
    загрузка...
    Рейтинг →
     (голосов: 1, оценка 5/5, голосовать можно 1 раз )

    Другие торренты по теме:

  • Gekijouban Kara no Kyoukai: Mirai Fukuin / The Garden of Sinners: Recalled out Summer / Граница пустоты: Источник будущего счастья [2013, MV+SP] BDRip Hi10p 720p Raw+Rus скачать через торрент бесплатно
  • Граница пустоты / Gekijo-ban: Zero (2014) HDRip скачать через торрент бесплатно
  • Насу Киноко | Граница пустоты: Сад грешников (2015) [m4b|AAC] скачать через торрент бесплатно


    • Комментарии (0):

      Информация

      Информация

        Посетители, находящиеся в группе Гости, не могут оставлять комментарии в данной новости.

        ↓ Меню




        ↓ Опрос

        Вы добавили сайт в закладки?
        Да
        Нет


        Top 10 за месяц (Мультфильмы)