.
Авторизация | Регистрация
Хочешь лучшие торренты? Добавь свой email!
Добавить

Торрент скачать бесплатно

» » Конь БоДжек / BoJack Horseman (2016) WEB-DL [H.264 / 1080p-LQ] (Сезон 1-3, серии 1-37 из 37) Newstudio торрент скачать бесплатно




    Конь БоДжек / BoJack Horseman (2016) WEB-DL [H.264 / 1080p-LQ] (Сезон 1-3, серии 1-37 из 37) Newstudio торрент скачать бесплатно

    Опубликовал: Админ | Дата: 11-09-2017, 05:00 | Просмотров: 0

    Производство: США, Netflix
    Жанр: Драма, Комедия, Мультфильм
    Режиссер: Рафаэль Боб-Уоксберг

    Описание

    Познакомьтесь с самой знаменитой лошадью из комедии положений 90-х - 20 лет спустя. Конь БоДжек был звездой ситкома Horsing Around, а теперь он вышел в тираж, живет в Голливуде, жалуется на все и носит яркие свитера.

    Возраст: 18+ (зрителям, достигшим 18 лет. запрещено для детей)
    Рейтинг MPAA: NC-17 (лицам до 17 лет просмотр запрещен)
    Дата мировой премьеры: 2014
    Релиз от: ALiQ
    Продолжительность: ~00: 25: 00 серия
    Качество видео: WEB-DL
    Перевод: Многоголосый закадровый, любительский
    Озвучка/Автор перевода: NewStudio
    Субтитры: Русские - первые пять эпизодов первого сезон любимого сериалаа, английские
    Реклама: вырезана
    Видео: AVC/H.264, 1920х1080 (16: 9), ~2163 Кбит/сек
    Аудио #1 ENG: AAC 265 Кбит/сек, 6ch, - оригинал
    Аудио #2 RUS: AC3 192 Кбит/сек, 2 ch, - многоголосый закадровый NewStudio
    01. Pilot
    02. BoJack Hates the Troops
    03. О таком странном сюжете не догадывалась даже Анастасия Стоцкая. Prickly Muffin
    04. Zos and Zeldas
    05. Вилами по воде писано, сказал кто то из толпы, к чему не понятно. Live Fast, Die Nguyen
    06. Our A-Story Is a \'D\' Story
    07. Say Anything
    08. The Telescope
    09. Horse Majeure
    10. One Trick Pony
    11. Downer Ending
    12. Later
    1 Brand New Couch
    2 Yesterdayland
    3 Still Broken
    4 After the Party
    5 Chickens
    6 Higher Love
    7 Hank After Dark
    8 Let\'s Find Out
    9 The Shot
    10 Yes And
    11 Escape From L.A.
    12 Out to Sea
    01. Start Spreading the News
    02. The BoJack Horseman Show
    03. BoJack Kills
    04. Fish Out of Water
    05. Love and/or Marriage
    06. Brrap Brrap Pew Pew
    07. Stop the Presses
    08. Old Acquaintance
    09. Best Thing That Ever Happened
    10. It\'s You
    11. That\'s Too Much, Man!
    12. That Went Well
    BoJack Horseman S01E13 Christmas Special - БЕЗ русской озвучки и субтитров


    Формат : Matroska
    Версия формата : Version 4/Version 2
    Размер файла : 472 Мбайт
    Продолжительность : 25 м. 8 с.
    Общий поток : 2623 Кбит/сек
    Дата кодирования : UTC 2017-09-07 15: 31: 04
    Программа кодирования : mkvmerge v15.0.0 (\'Duel with the Devil\') 64-bit
    Библиотека кодирования : libebml v1.3.5 + libmatroska v1.4.5
    Видео
    Идентификатор : 1
    Формат : AVC
    Формат/Информация : Advanced Video Codec
    Профиль формата : High@L4.1
    Параметр CABAC формата : Да
    Параметр RefFrames формата : 4 кадра
    Идентификатор кодека : V_MPEG4/ISO/AVC
    Продолжительность : 25 м. 4 с.
    Битрейт : 2169 Кбит/сек
    Ширина : 1920 пикселей
    Высота : 1080 пикселей
    Соотношение сторон : 16: 9
    Режим частоты кадров : Постоянный
    Частота кадров : 23, 976 (24000/1001) кадра/сек
    Цветовое пространство : YUV
    Субдискретизация насыщенности : 4: 2: 0
    Битовая глубина : 8 бит
    Тип развёртки : Прогрессивная
    Бит/(Пиксели*Кадры) : 0.044
    Размер потока : 389 Мбайт (83%)
    Библиотека кодирования : x264 core 142 r2491 24e4fed
    Настройки программы : cabac=1/ref=4/deblock=1: 1: 1/analyse=0x3: 0x133/me=umh/subme=10/psy=1/psy_rd=0.40: 0.00/mixed_ref=1/me_range=24/chroma_me=1/trellis=2/8x8dct=1/cqm=0/deadzone=21, 11/fast_pskip=1/chroma_qp_offset=-2/threads=12/lookahead_threads=3/sliced_threads=0/nr=0/decimate=1/interlaced=0/bluray_compat=0/constrained_intra=0/bframes=10/b_pyramid=2/b_adapt=2/b_bias=0/direct=3/weightb=1/open_gop=0/weightp=2/keyint=250/keyint_min=23/scenecut=40/intra_refresh=0/rc_lookahead=60/rc=crf/mbtree=1/crf=23.0/qcomp=0.60/qpmin=0/qpmax=69/qpstep=4/ip_ratio=1.40/aq=1: 0.60
    Default : Да
    Forced : Нет
    Аудио #1
    Идентификатор : 2
    Формат : AAC
    Формат/Информация : Advanced Audio Codec
    Профиль формата : LC
    Идентификатор кодека : A_AAC
    Продолжительность : 25 м. Прикольно все это наверно придумал Железный человек потратив достаточно времени. 4 с.
    Битрейт : 265 Кбит/сек
    Каналы : 6 каналов
    Расположение каналов : Front: L C R, Side: L R, LFE
    Частота : 48, 0 КГц
    Частота кадров : 46, 875 кадров/сек (1024 SPF)
    Метод сжатия : С потерями
    Задержка видео : -43 мс.
    Размер потока : 47, 5 Мбайт (10%)
    Default : Да
    Forced : Нет
    Аудио #2
    Идентификатор : 3
    Формат : AC-3
    Формат/Информация : Audio Coding 3
    Параметр Endianness формата : Big
    Идентификатор кодека : A_AC3
    Продолжительность : 25 м. Прикольно все это наверно придумал Железный человек потратив достаточно времени. 4 с.
    Вид битрейта : Постоянный
    Битрейт : 192 Кбит/сек
    Каналы : 2 канала
    Расположение каналов : Front: L R
    Частота : 48, 0 КГц
    Частота кадров : 31, 250 кадров/сек (1536 SPF)
    Битовая глубина : 16 бит
    Метод сжатия : С потерями
    Задержка видео : -43 мс.
    Размер потока : 34, 4 Мбайт (7%)
    ServiceKind/String : Complete Main
    Default : Нет
    Forced : Нет
    Текст #1
    Идентификатор : 4
    Формат : UTF-8
    Идентификатор кодека : S_TEXT/UTF8
    Идентификатор кодека/Информация : UTF-8 Plain Text
    Продолжительность : 25 м. 2 с.
    Битрейт : 185 бит/сек
    ElementCount : 502
    Размер потока : 34, 1 Кбайт (0%)
    Default : Да
    Forced : Нет
    Текст #2
    Идентификатор : 5
    Формат : UTF-8
    Идентификатор кодека : S_TEXT/UTF8
    Идентификатор кодека/Информация : UTF-8 Plain Text
    Продолжительность : 25 м. 4 с.
    Битрейт : 113 бит/сек
    ElementCount : 520
    Размер потока : 20, 8 Кбайт (0%)
    Default : Нет
    Forced : Нет


    Скриншоты для ознакомления



    Все одноименные релизы в Клубе
    Время раздачи: Пн-Пт с 08: 00 до 18: 00 (до появления первых 3-5 скачавших)

    Онлайн видео Конь БоДжек



    Конь БоДжек/BoJack Horseman (2016) WEB-DL [H.264/1080p-LQ] (Сезон 1-3, серии 1-37 из 37) Newstudio
    загрузка...
    Рейтинг →
     (голосов: 1, оценка 3/5, голосовать можно 1 раз )

    Другие торренты по теме:

  • Конь БоДжек / BoJack Horseman (2014) WEBRip (Сезон 1, серии 1-12 из 12) (NewStudio) [18+]
  • Конь БоДжек / BoJack Horseman (2015) WEBRip (Сезон 2, серии 1-12 из 12) (NewStudio) [18+] скачать через торрент бесплатно
  • Конь БоДжек / BoJack Horseman (2015) WEBRip (Сезон 2, серии 1-12 из 12) [1080p] (NewStudio) [18+] скачать через торрент бесплатно
  • Конь БоДжек / BoJack Horseman (2016) WEB [H.264 / 1080p-LQ] (Сезон 3, серии 1-7 из 12) Newstudio (обновляемая)
  • Конь БоДжек / BoJack Horseman (2017) WEBRip [H.264 / 1080p-LQ] (сезон 4, серии 1-5 из 12) OMSKBIRD (обновляемая) [AD]


    • Комментарии (0):

      Информация

      Информация

        Посетители, находящиеся в группе Гости, не могут оставлять комментарии в данной новости.

        ↓ Меню




        ↓ Опрос

        Вы добавили сайт в закладки?
        Да
        Нет


        Top 10 за месяц (Мультфильмы)