.
Авторизация | Регистрация
Хочешь лучшие торренты? Добавь свой email!
Добавить

Торрент скачать бесплатно

» » Подводная эра / Deep (2017) WEB-DLRip [H.264] торрент скачать бесплатно




    Подводная эра / Deep (2017) WEB-DLRip [H.264] торрент скачать бесплатно

    Опубликовал: Админ | Дата: 4-09-2017, 05:00 | Просмотров: 0

    Производство: США, Испания, Бельгия
    Жанр: Мультфильм, комедия, приключения, семейный
    Режиссер: Джулио Сото Гарпид
    Персонажи: Фил ЛаМарр, Джесс Харнелл, Джефф Беннетт, Дэйв Фенной, Боб Берген, Уильям Салиерс, Анна Вочино, Терри Дуглас, Джо Охман

    Описание

    К 2100 году люди покинули нашу планету. Но в глубокой впадине на самом дне океана продолжает жить колония удивительных морских существ. Среди них любопытный глубоководный осьминожек Дип и двое его друзей — пугливый удильщик Иво и по большей части импульсивная креветка Элис. Однако, когда их дому угрожает опасность, мудрый дедушка Дипа, гигантский осьминог Кракен, отправляет их за помощью на другой конец океана. О таком странном сюжете не догадывалась даже Ольга Полякова. Друзей и присоединившуюся к ним стеснительную мурену Мойру ждет целое море опасных и невероятных приключений…

    Возраст: 6+ (зрителям, достигшим 6 лет)
    Рейтинг MPAA: PG (рекомендуется присутствие родителей)
    Дата мировой премьеры: 11 мая 2017
    Дата российской премьеры: 1 июня 2017, Вольга
    Продолжительность: 01: 32: 38
    Качество видео: WEB-DLRip
    Перевод: Дублированный (iTunes)
    Субтитры: отсутствуют.
    Видео: AVC/H.264, 1024x550, ~1943 Kbps
    Аудио 1: AC3, 2 ch, 192 Kbps - Русский
    Аудио 2: AC3, 6 ch, 384 Kbps - Английский

    Deep.2017.D.WEB-DLRip.AVC.mkv
    Формат : Matroska
    Версия формата : Version 2
    Размер файла : 1, 63 Гбайт
    Продолжительность : 1 ч. 32 м.
    Общий поток : 2520 Кбит/сек
    Название фильма : Deep 2017 from ExKinoRay
    Дата кодирования : UTC 2017-09-03 03: 06: 23
    Программа кодирования : mkvmerge v5.6.0 (\'Kenya Kane\') built on May 27 2012 16: 44: 04
    Библиотека кодирования : libebml v1.2.3 + libmatroska v1.3.0
    Обложка : Yes
    Attachments : cover_land.jpg/small_cover.jpg/small_cover_land.jpg/cover.jpg
    Видео
    Идентификатор : 1
    Формат : AVC
    Формат/Информация : Advanced Video Codec
    Профиль формата : High@L4.1
    Параметр CABAC формата : Да
    Параметр RefFrames формата : 10 кадров
    Идентификатор кодека : V_MPEG4/ISO/AVC
    Продолжительность : 1 ч. 32 м.
    Битрейт : 1943 Кбит/сек
    Ширина : 1024 пикселя
    Высота : 550 пикселей
    Соотношение сторон : 1, 85: 1
    Режим частоты кадров : Постоянный
    Частота кадров : 23, 976 (23976/1000) кадра/сек
    Цветовое пространство : YUV
    Субдискретизация насыщенности : 4: 2: 0
    Битовая глубина : 8 бит
    Тип развёртки : Прогрессивная
    Бит/(Пиксели*Кадры) : 0.144
    Размер потока : 1, 23 Гбайт (75%)
    Заголовок : Enigma
    Библиотека кодирования : x264 core 144 r2525 40bb568
    Настройки программы : cabac=1/ref=10/deblock=1: -2: -2/analyse=0x3: 0x113/me=umh/subme=10/psy=1/psy_rd=1.00: 0.05/mixed_ref=1/me_range=32/chroma_me=1/trellis=2/8x8dct=1/cqm=0/deadzone=21, 11/fast_pskip=1/chroma_qp_offset=-3/threads=12/lookahead_threads=3/sliced_threads=0/nr=0/decimate=0/interlaced=0/bluray_compat=0/constrained_intra=0/bframes=10/b_pyramid=2/b_adapt=2/b_bias=0/direct=3/weightb=1/open_gop=0/weightp=2/keyint=240/keyint_min=23/scenecut=40/intra_refresh=0/rc_lookahead=40/rc=2pass/mbtree=0/bitrate=1943/ratetol=1.0/qcomp=0.60/qpmin=0/qpmax=51/qpstep=4/cplxblur=20.0/qblur=0.5/vbv_maxrate=50000/vbv_bufsize=62500/nal_hrd=none/filler=0/ip_ratio=1.40/pb_ratio=1.30/aq=1: 1.00
    Язык : English
    Default : Да
    Forced : Нет
    Цветовой диапазон : Limited
    Основные цвета : BT.709
    Характеристики трансфера : BT.709
    Коэффициенты матрицы : BT.709
    Аудио #1
    Идентификатор : 2
    Формат : AC-3
    Формат/Информация : Audio Coding 3
    Параметр Endianness формата : Big
    Идентификатор кодека : A_AC3
    Продолжительность : 1 ч. 32 м.
    Вид битрейта : Постоянный
    Битрейт : 192 Кбит/сек
    Каналы : 2 канала
    Расположение каналов : Front: L R
    Частота : 48, 0 КГц
    Частота кадров : 31, 250 кадров/сек (1536 SPF)
    Битовая глубина : 16 бит
    Метод сжатия : С потерями
    Размер потока : 127 Мбайт (8%)
    Язык : Russian
    ServiceKind/String : Complete Main
    Default : Нет
    Forced : Нет
    Аудио #2
    Идентификатор : 3
    Формат : AC-3
    Формат/Информация : Audio Coding 3
    Параметр Endianness формата : Big
    Идентификатор кодека : A_AC3
    Продолжительность : 1 ч. 32 м.
    Вид битрейта : Постоянный
    Битрейт : 384 Кбит/сек
    Каналы : 6 каналов
    Расположение каналов : Front: L C R, Side: L R, LFE
    Частота : 48, 0 КГц
    Частота кадров : 31, 250 кадров/сек (1536 SPF)
    Битовая глубина : 16 бит
    Метод сжатия : С потерями
    Размер потока : 254 Мбайт (15%)
    Язык : English
    ServiceKind/String : Complete Main
    Default : Нет
    Forced : Нет
    Меню
    00: 00: 00.000 : en: 1
    00: 02: 02.000 : en: 2
    00: 11: 58.000 : en: 3
    00: 20: 08.000 : en: 4
    00: 28: 34.000 : en: 5
    00: 38: 03.000 : en: 6
    00: 47: 03.000 : en: 7
    00: 57: 09.000 : en: 8
    01: 05: 55.000 : en: 9
    01: 15: 23.000 : en: 10
    01: 27: 22.000 : en: 11

    Скриншоты для ознакомления



    Все одноименные релизы в Клубе
    Время раздачи: 24/7 (до появления первых 3-5 скачавших)

    Онлайн видео Подводная эра



    Подводная эра/Deep (2017) WEB-DLRip [H.264]
    загрузка...
    Рейтинг →
     (голосов: 1, оценка 4/5, голосовать можно 1 раз )

    Другие торренты по теме:

  • Подводная эра / Deep (2017) WEB-DL [H.264 / 720p-LQ] [EN]
  • Подводная эра / Deep (2017) WEB-DLRip [Звук с TS] [AD]
  • Подводная эра / Deep (2017) WEB-DL [H.264 / 720p-LQ]
  • Подводная эра / Deep (2017) WEB-DLRip


    • Комментарии (0):

      Информация

      Информация

        Посетители, находящиеся в группе Гости, не могут оставлять комментарии в данной новости.

        ↓ Меню




        ↓ Опрос

        Вы добавили сайт в закладки?
        Да
        Нет


        Top 10 за месяц (Мультфильмы)