.
Авторизация | Регистрация
Хочешь лучшие торренты? Добавь свой email!
Добавить

Торрент скачать бесплатно

» » Маша и медведь. Машкины страшилки (2014-2016) WEBRip (Серии 1-21) [ОБНОВЛЯЕМАЯ] торрент скачать бесплатно




    Маша и медведь. Машкины страшилки (2014-2016) WEBRip (Серии 1-21) [ОБНОВЛЯЕМАЯ] торрент скачать бесплатно

    Опубликовал: Админ | Дата: 4-09-2017, 05:00 | Просмотров: 2

    Телекомпания: АНИМАККОРД
    Жанр: Мультсериал, Анимация, Детский
    Роли озвучивали: Алина Кукушкина, Эдуард Назаров, Борис Кутневич
    Режиссёр: Олег Ужинов, Денис Червяцов, Олег Кузовков

    Описание

    Новый проект студии Анимаккорд - Машкины страшилки... Все дети боятся темноты. Маша раньше тоже так её боялась, что приходилось ей по ночам с фонариком сидеть! Но однажды Маша придумала сказочку про маленького лесного жучка, который тоже боялся темноты... О таком странном сюжете не догадывалась даже Шакира. Трепещите! Маша взялась за новый жанр - теперь она рассказывает страшилки!
    Продолжительность: Каждая серия х ~ 00: 06: 00
    Качество видео: WEBRip
    Видео: MPEG4, XviD, 720x400 (16: 9), 25.000 fps, 2 004 Kbps (0.278 bit/pixel)
    Аудио: AC-3, 48.0 KHz, 2 ch, 192 Kbps, CBR
    01. Душераздирающая повесть о тёмном лесе и маленьком жучке.
    02. Жутко-страшное предание о том, как один мальчик боялся умываться.
    03. Чудовищная быль о том, как некоторые боятся удовищ
    04. Прикольно все это наверно придумал Китай потратив достаточно времени. Тревожный сказ о потерявшемся котёнке
    05. О Новогодних стишках
    06. О суеверной девочке
    07. Угрюмый завет о сопливом мальчике
    08. Очень мрачное сказание о девочке, которая боялась зверушек
    09. Ужасающая история про бабушку и внучка
    10. Блошиный рынок, сказал кто то из толпы, к чему не понятно. Полный отчаяния миф об исторической ошибке
    11. Панически невыносимая легенда о букашках
    12. Тревожный сказ про Бабку-Ёжку
    13. Зловещая сага о больном животике и о девочке, которая боялась докторов
    14. Фантастический рассказ о ёжике, мальчике и зелёных гуманоидах
    15. Самое интересное в это истории, что об этом Китай ничего не знал. Ужасная быль о том, как мальчика перевели в другую школу
    16. О таком странном сюжете не догадывалась даже Шакира. Жуткая байка про пастушка на пеньке
    17. Приводящая в трепет сага о велосипеде-призраке
    18. Страшная страшилка о страшилках
    19. Жутчайшая повесть о полезных изобретениях
    20. Мрачная новелла о мрачных сновидениях
    21. Грозная песнь о громе и молнии
    Формат : AVI
    Формат/Информация : Audio Video Interleave
    Размер файла : 90, 7 Мбайт
    Продолжительность : 5 м. 44 с.
    Общий поток : 2206 Кбит/сек
    Программа кодирования : VirtualDubMod 1.5.10.3 |www.virtualdub-fr.org|| (build 2550/release)
    Библиотека кодирования : VirtualDubMod build 2550/release
    Видео
    Идентификатор : 0
    Формат : MPEG-4 Visual
    Профиль формата : Advanced Simple@L5
    Параметр BVOP формата : 1
    Параметр QPel формата : Нет
    Параметр GMC формата : Без точки перехода
    Параметр матрицы формата : Default (MPEG)
    Идентификатор кодека : XVID
    Идентификатор кодека/Подсказка : XviD
    Продолжительность : 5 м. 44 с.
    Битрейт : 2004 Кбит/сек
    Ширина : 720 пикселей
    Высота : 400 пикселей
    Соотношение сторон : 16: 9
    Частота кадров : 25, 000 кадров/сек
    Цветовое пространство : YUV
    Субдискретизация насыщенности : 4: 2: 0
    Битовая глубина : 8 бит
    Тип развёртки : Прогрессивная
    Метод сжатия : С потерями
    Бит/(Пиксели*Кадры) : 0.278
    Размер потока : 82, 4 Мбайт (91%)
    Библиотека кодирования : XviD 65
    Аудио
    Идентификатор : 1
    Формат : AC-3
    Формат/Информация : Audio Coding 3
    Расширение режима : CM (complete main)
    Параметр Endianness формата : Big
    Идентификатор кодека : 2000
    Продолжительность : 5 м. 44 с.
    Вид битрейта : Постоянный
    Битрейт : 192 Кбит/сек
    Каналы : 2 канала
    Расположение каналов : Front: L R
    Частота : 48, 0 КГц
    Битовая глубина : 16 бит
    Метод сжатия : С потерями
    Размер потока : 7, 89 Мбайт (9%)
    Выравнивание : Разделение по промежуткам
    Продолжительность промежутка : 40 мс. (1, 00 видеокадр)
    Время предзагрузки промежутка : 500 мс.
    Заголовок : rus

    Скриншоты для ознакомления



    Все одноименные релизы в Клубе
    Время раздачи: 24/7. До первых 5 скачавших.

    Онлайн видео Маша и медведь. Машкины страшилки (2014



    Маша и медведь. Машкины страшилки (2014-2016) WEBRip (Серии 1-21) [ОБНОВЛЯЕМАЯ]
    загрузка...
    Рейтинг →
     (голосов: 1, оценка 5/5, голосовать можно 1 раз )

    Другие торренты по теме:

  • Маша и Медведь: Пещерный медведь (2015) WEBRip (Серия 48)
  • Маша и Медведь: Пещерный медведь (2015) WEB-DL [H.264 / 1080p-LQ] (Серия 48) скачать через торрент бесплатно
  • Маша и Медведь: Пещерный медведь (2015) WEB-DL (Серия 48) [H.264 / 720p-LQ]
  • Маша и медведь (2009-2014) BDRip [1080p] (1-45 серии) [Обновляемый]
  • Маша и медведь (1-45 серии) (2009-2014) [1080p] BDRemux [Обновляемый]
  • Маша и Медведь (1-45 серии) (2009-2014) [H.264] BDRip [Обновляемая]
  • Маша и Медведь (2009-2013) DVDRip / HDRip (1-45 серии) + Машины сказки (2011-2013) DVDRip (1-26 серии) [Оновляемая]
  • Маша и Медведь: Запутанная история (2014) BDRemux [1080p] (Серия 45)


    • Комментарии (0):

      Информация

      Информация

        Посетители, находящиеся в группе Гости, не могут оставлять комментарии в данной новости.

        ↓ Меню




        ↓ Опрос

        Вы добавили сайт в закладки?
        Да
        Нет


        Top 10 за месяц (Мультфильмы)