.
Авторизация | Регистрация
Хочешь лучшие торренты? Добавь свой email!
Добавить

Торрент скачать бесплатно

» » Заячья школа / Rabbit school (2017) WEB-DL [H.264 / 1080p-LQ] торрент скачать бесплатно




    Заячья школа / Rabbit school (2017) WEB-DL [H.264 / 1080p-LQ] торрент скачать бесплатно

    Опубликовал: Админ | Дата: 3-09-2017, 05:00 | Просмотров: 0

    Производство: Германия
    Жанр: мультфильм, семейный
    Режиссер: Уте фон Мюнхов-Поль
    Персонажи: Ноа Леви, Зента Бергер, Фридрих фон Тун, Дженни Мелина Витец, Макс Богут, Бен Боксберг, Юля Бёве, Дирк Петрик, Константин фон Ящерофф, Тим Сэндер

    Описание

    Макс, любитель городской суеты и молодежных развлечений, попадает туда, где ему совсем не место — в старомодную заячью школу. Но чем дольше он здесь находится, тем больше узнает о чудесном светлом празднике, ценности дружбы и собственном предназначении.

    Возраст: 0+ (для любой зрительской аудитории)
    Рейтинг MPAA: G (нет возрастных ограничений)
    Дата мировой премьеры: 15 марта 2017
    Дата российской премьеры: 20 июля 2017, Люксор
    Продолжительность: 01: 12: 33
    Качество видео: WEB-DL
    Перевод: Дублированный (iTunes)
    Субтитры: отсутствуют.
    Видео: AVC/H.264, 1920x1038, ~5124 Kbps
    Аудио: AC3, 6 ch, 384 Kbps

    3aja4ja.Wk0La.2017.D.WEB-DL.1080p.mkv
    Формат : Matroska
    Версия формата : Version 4/Version 2
    Размер файла : 2, 79 Гбайт
    Продолжительность : 1 ч. 12 м.
    Общий поток : 5510 Кбит/сек
    Дата кодирования : UTC 2017-09-01 10: 31: 54
    Программа кодирования : mkvmerge v8.3.0 (\'Over the Horizon\') 64bit
    Библиотека кодирования : libebml v1.3.1 + libmatroska v1.4.2
    Видео
    Идентификатор : 1
    Формат : AVC
    Формат/Информация : Advanced Video Codec
    Профиль формата : High@L4
    Параметр CABAC формата : Да
    Параметр RefFrames формата : 4 кадра
    Идентификатор кодека : V_MPEG4/ISO/AVC
    Продолжительность : 1 ч. 12 м.
    Битрейт : 5124 Кбит/сек
    Ширина : 1920 пикселей
    Высота : 1038 пикселей
    Соотношение сторон : 1, 85: 1
    Режим частоты кадров : Постоянный
    Частота кадров : 25, 000 кадров/сек
    Цветовое пространство : YUV
    Субдискретизация насыщенности : 4: 2: 0
    Битовая глубина : 8 бит
    Тип развёртки : Прогрессивная
    Бит/(Пиксели*Кадры) : 0.103
    Размер потока : 2, 60 Гбайт (93%)
    Язык : English
    Default : Да
    Forced : Нет
    Цветовой диапазон : Limited
    Основные цвета : BT.709
    Характеристики трансфера : BT.709
    Коэффициенты матрицы : BT.709
    Аудио
    Идентификатор : 2
    Формат : AC-3
    Формат/Информация : Audio Coding 3
    Параметр Endianness формата : Big
    Идентификатор кодека : A_AC3
    Продолжительность : 1 ч. 12 м.
    Вид битрейта : Постоянный
    Битрейт : 384 Кбит/сек
    Каналы : 6 каналов
    Расположение каналов : Front: L C R, Side: L R, LFE
    Частота : 48, 0 КГц
    Частота кадров : 31, 250 кадров/сек (1536 SPF)
    Битовая глубина : 16 бит
    Метод сжатия : С потерями
    Размер потока : 199 Мбайт (7%)
    Язык : Russian
    ServiceKind/String : Complete Main
    Default : Да
    Forced : Нет
    Меню
    00: 00: 00.000 : en: Глава 1
    00: 05: 41.840 : en: Глава 2
    00: 11: 08.880 : en: Глава 3
    00: 17: 11.200 : en: Глава 4
    00: 22: 42.600 : en: Глава 5
    00: 28: 43.480 : en: Глава 6
    00: 35: 43.680 : en: Глава 7
    00: 40: 58.400 : en: Глава 8
    00: 47: 40.960 : en: Глава 9
    00: 54: 02.800 : en: Глава 10
    00: 58: 09.760 : en: Глава 11
    01: 04: 23.280 : en: Глава 12

    Скриншоты для ознакомления



    Все одноименные релизы в Клубе
    Время раздачи: 24/7 (до появления первых 3-5 скачавших)

    Онлайн видео Заячья школа



    Заячья школа/Rabbit school (2017) WEB-DL [H.264/1080p-LQ]
    загрузка...
    Рейтинг →
     (голосов: 1, оценка 5/5, голосовать можно 1 раз )

    Другие торренты по теме:

  • Заячья школа / Rabbit school (2017) WEB-DLRip
  • Заячья школа / Rabbit school (2017) WEB-DL [H.264 / 720p-LQ]


    • Комментарии (0):

      Информация

      Информация

        Посетители, находящиеся в группе Гости, не могут оставлять комментарии в данной новости.

        ↓ Меню




        ↓ Опрос

        Вы добавили сайт в закладки?
        Да
        Нет


        Top 10 за месяц (Мультфильмы)