.
Авторизация | Регистрация
Хочешь лучшие торренты? Добавь свой email!
Добавить

Торрент скачать бесплатно

» » Гадкий я 3 / Despicable Me 3 (2017) WEBRip [H.264 / 1080p-LQ] [EN / EN Sub] торрент скачать бесплатно




    Гадкий я 3 / Despicable Me 3 (2017) WEBRip [H.264 / 1080p-LQ] [EN / EN Sub] торрент скачать бесплатно

    Опубликовал: Админ | Дата: 2-09-2017, 05:00 | Просмотров: 0

    Производство: США, Illumination Entertainment, Universal Pictures
    Жанр: Мультфильм, Боевик, Приключения
    Режиссер: Эрик Гуильон, Кайл Балда, Пьер Коффан
    Персонажи: Стив Карелл, Кристен Уиг, Трей Паркер, Миранда Косгров, Дэна Гайер, Нев Шаррел, Пьер Коффан, Стив Куган, Джули Эндрюс, Дженни Слейт ...

    Описание

    Грядет третье пришествие. Многодетный суперагент, роковая красотка и бессмертные миньоны на подходе. Готовьтесь. Они будут править миром.

    Возраст: 6+ (зрителям, достигшим 6 лет)
    Рейтинг MPAA: PG (рекомендуется присутствие родителей)
    Дата мировой премьеры: 14 июня 2017, ...
    Дата российской премьеры: 29 июня 2017, UPI
    Продолжительность: 01: 29: 32
    Качество видео: WEBRip 1080p
    Перевод: Отсутствует
    Язык озвучки: Английский
    Субтитры: Английские (отдельным файлом)
    Видео: AVC, 1920x800 (2.40: 1), 30.000 fps, 5 779 Kbps (0.125 bit/pixel)
    Аудио: AC-3, 48.0 KHz, 2 ch, 192 Kbps, CBR (English)
    General
    Complete name : Despicable.Me.3.2017.1080p.WEBRip.X264.AC3.mkv
    Format : Matroska
    Format version : Version 4/Version 2
    File size : 3.81 GiB
    Duration : 1 h 29 min
    Overall bit rate : 6 092 kb/s
    Encoded date : UTC 2017-08-31 10: 28: 13
    Writing application : mkvmerge v6.7.0 (\'Back to the Ground\') 64bit built on Jan 8 2014 15: 10: 52
    Writing library : libebml v1.3.0 + libmatroska v1.4.1
    Video
    ID : 2
    Format : AVC
    Format/Info : Advanced Video Codec
    Format profile : High@L4.1
    Format settings, CABAC : Yes
    Format settings, RefFrames : 4 frames
    Codec ID : V_MPEG4/ISO/AVC
    Duration : 1 h 29 min
    Bit rate : 5 779 kb/s
    Width : 1 920 pixels
    Height : 800 pixels
    Display aspect ratio : 2.40: 1
    Frame rate mode : Constant
    Frame rate : 30.000 FPS
    Color space : YUV
    Chroma subsampling : 4: 2: 0
    Bit depth : 8 bits
    Scan type : Progressive
    Bits/(Pixel*Frame) : 0.125
    Stream size : 3.61 GiB (95%)
    Language : English
    Default : Yes
    Forced : No
    Color range : Limited
    Color primaries : BT.709
    Transfer characteristics : BT.709
    Matrix coefficients : BT.709
    Audio
    ID : 1
    Format : AC-3
    Format/Info : Audio Coding 3
    Format settings, Endianness : Big
    Codec ID : A_AC3
    Duration : 1 h 29 min
    Bit rate mode : Constant
    Bit rate : 192 kb/s
    Channel(s) : 2 channels
    Channel positions : Front: L R
    Sampling rate : 48.0 kHz
    Frame rate : 31.250 FPS (1536 SPF)
    Bit depth : 16 bits
    Compression mode : Lossy
    Stream size : 123 MiB (3%)
    Language : English
    Service kind : Complete Main
    Default : Yes
    Forced : No

    Скриншоты для ознакомления





    Все одноименные релизы в Клубе
    Время раздачи: 24/7 (круглосуточно) (до появления первых 3-5 скачавших)

    Онлайн видео Гадкий я 3



    Гадкий я 3/Despicable Me 3 (2017) WEBRip [H.264/1080p-LQ] [EN/EN Sub]
    загрузка...
    Рейтинг →
     (голосов: 1, оценка 4/5, голосовать можно 1 раз )

    Другие торренты по теме:

  • Despicable Me / Гадкий Я 2.8.0k [Ru] скачать через торрент бесплатно
  • Гадкий я 3 / Despicable Me 3 (2017) TS [H.264] [MP4|720x304] [AD]
  • Гадкий Я / Despicable Me (2010) BDRip [H.265 / 1080p-LQ]
  • Гадкий Я 2 / Despicable Me 2 (2013) BDRip [H.265 / 1080p-LQ]
  • Гадкий я 3 / Despicable Me 3 (2017) WEBRip [AD]
  • Гадкий я 3 / Despicable Me 3 (2017) WEBRip [H.264 / 1080p-LQ] [AD]
  • Гадкий я 3 / Despicable Me 3 (2017) WEB-DL [H.264 / 1080p-LQ] [EN / EN Sub]
  • Гадкий я 3 / Despicable Me 3 (2017) BDRip [H.264 / 1080p] [EN / EN Sub]


    • Комментарии (0):

      Информация

      Информация

        Посетители, находящиеся в группе Гости, не могут оставлять комментарии в данной новости.

        ↓ Меню




        ↓ Опрос

        Вы добавили сайт в закладки?
        Да
        Нет


        Top 10 за месяц (Мультфильмы)