.
Авторизация | Регистрация
Хочешь лучшие торренты? Добавь свой email!
Добавить

Торрент скачать бесплатно

» » Принц-медведь / Der Prinz im Barenfell (2015) DVB торрент скачать бесплатно




    Принц-медведь / Der Prinz im Barenfell (2015) DVB торрент скачать бесплатно

    Опубликовал: Админ | Дата: 2-09-2017, 05:00 | Просмотров: 0

    Производство: Германия/Askania Media Filmproduktion GmbH, ProSaar
    Жанр: Фэнтези, Семейный
    Режиссер: Бодо Фюрнайзен

    Актеры
    Максимилиан Бефорт, Мира Элиза Горес, Мирослав Немец, Вильфрид Хохгольдингер, Кристиан Грасхоф, Инга Буш, Nora Hickler, Киран Уэст, Гвидо Фёрвайсер

    Описание

    Давным-давно в далёком королевстве жил капризный и ветреный принц Мариус. Большая шишка, сказал кто то из толпы, к чему не понятно. Однажды он попал в ловушку колдуна, и тот превратил его в косматое чудовище. Спасти королевича от проклятия сможет только искренняя любовь.

    Возраст: 0+ (для любой зрительской аудитории)
    Рейтинг MPAA: G (нет возрастных ограничений)
    Продолжительность: 00: 58: 24
    Качество видео: DVB
    Перевод: Многоголосый закадровый, профессиональный
    Субтитры: отсутствуют
    Видео: AVC/H.264, 720x576@1024x576, ~1551 Kbps
    Аудио: MP2, 2 ch, 160 Kbps

    Общее
    Идентификатор : 16 (0x10)
    Полное имя : Der Prinz im Bärenfell.ts
    Формат : MPEG-TS
    Размер файла : 754 Мбайт
    Продолжительность : 58 м. 29 с.
    Режим общего битрейта : Переменный
    Общий поток : 1802 Кбит/сек
    Видео
    Идентификатор : 1428 (0x594)
    Идентификатор меню : 428 (0x1AC)
    Формат : AVC
    Формат/Информация : Advanced Video Codec
    Профиль формата : Main@L3
    Параметр CABAC формата : Да
    Параметр ReFrames формата : 4 кадра
    Параметр GOP формата : M=4, N=32
    Идентификатор кодека : 27
    Продолжительность : 58 м. 25 с.
    Битрейт : 1551 Кбит/сек
    Ширина : 720 пикселей
    Высота : 576 пикселей
    Соотношение сторон : 16: 9
    Частота кадров : 25, 000 кадров/сек
    Стандарт вещания : PAL
    Цветовое пространство : YUV
    Субдискретизация насыщенности : 4: 2: 0
    Битовая глубина : 8 бит
    Тип развёртки : Чересстрочная
    Метод сохранения типа развёртки : Раздельные поля
    Порядок развёртки : Верхнее поле первое
    Бит/(Пиксели*Кадры) : 0.150
    Размер потока : 648 Мбайт (86%)
    Цветовой диапазон : Limited
    Основные цвета : BT.601 PAL
    Характеристики трансфера : BT.470 System B, BT.470 System G
    Коэффициенты матрицы : BT.601
    Аудио
    Идентификатор : 2428 (0x97C)
    Идентификатор меню : 428 (0x1AC)
    Формат : MPEG Audio
    Версия формата : Version 1
    Профиль формата : Layer 2
    Идентификатор кодека : 4
    Продолжительность : 58 м. 26 с.
    Вид битрейта : Постоянный
    Битрейт : 160 Кбит/сек
    Каналы : 2 канала
    Частота : 48, 0 КГц
    Метод сжатия : С потерями
    Задержка видео : 10 мс.
    Размер потока : 66, 9 Мбайт (9%)
    Язык : std
    Язык, дополнительно : Clean effects

    Скриншоты для ознакомления



    Все одноименные релизы в Клубе
    Время раздачи: Пн-Пт с 18: 00 до 22: 00 (до появления первых 3-5 скачавших)

    Онлайн видео Принц-медведь



    Принц-медведь/Der Prinz im Barenfell (2015) DVB
    загрузка...
    Рейтинг →
     (голосов: 1, оценка 3/5, голосовать можно 1 раз )

    Другие торренты по теме:

  • Принц-медведь / Der Prinz im Barenfell (2015) HDTVRip [H.264 / 720p] [MVO]


    • Комментарии (0):

      Информация

      Информация

        Посетители, находящиеся в группе Гости, не могут оставлять комментарии в данной новости.

        ↓ Меню




        ↓ Опрос

        Вы добавили сайт в закладки?
        Да
        Нет


        Top 10 за месяц (Мультфильмы)