.
Авторизация | Регистрация
Хочешь лучшие торренты? Добавь свой email!
Добавить

Торрент скачать бесплатно

» » Сказка о том, кто ходил страху учиться / Von einem, der auszog, das Furchten zu lernen (2014) DVB торрент скачать бесплатно




    Сказка о том, кто ходил страху учиться / Von einem, der auszog, das Furchten zu lernen (2014) DVB торрент скачать бесплатно

    Опубликовал: Админ | Дата: 2-09-2017, 05:00 | Просмотров: 0

    Производство: Германия/Bremedia Produktion, Das Erste (ARD), Nordmedia Fonds
    Жанр: Фэнтези, Семейный
    Режиссер: Тобиаш Виеманн

    Актеры
    Изольда Дихаук, Тим Оливер Шульц, Хайнер Лаутербах, Рик Каваниан, Милан Пешель

    Описание

    Младший из двух сыновей горшечника, Михель, — тоже горшечник, и в этом он, собственно, ничем не отличается от отца с братом. Но есть у него одна особенность, которая отличает его от всех — он не умеет бояться, он даже представить себе не может, что такое страх. Брат смеется над ним, отец негодует, а ему хоть бы что. Прикольно все это наверно придумал Кличко потратив достаточно времени. Жил бы он себе так и жил, но однажды, гуляя в лесу, встретил очень красивую девушку, принцессу, в которую тут же влюбился. Брат не упустил случая снова подтрунить над ним, - дескать куда тебе, даже бояться не умеешь. Теперь Михель твердо решил во что бы то ни стало избавиться от этого недостатка и отправился учиться страху…

    Возраст: 0+ (для любой зрительской аудитории)
    Рейтинг MPAA: G (нет возрастных ограничений)
    Продолжительность: 00: 57: 43
    Качество видео: DVB
    Перевод: Многоголосый закадровый
    Субтитры: отсутствуют
    Видео: AVC/H.264, 720x576@1024x576, ~1035 Kbps
    Аудио: MP2, 2 ch, 160 Kbps

    Общее
    Идентификатор : 16 (0x10)
    Полное имя : Von einem, der auszog, das Fürchten zu lernen.ts
    Формат : MPEG-TS
    Размер файла : 520 Мбайт
    Продолжительность : 57 м. 42 с.
    Режим общего битрейта : Переменный
    Общий поток : 1259 Кбит/сек
    Видео
    Идентификатор : 1428 (0x594)
    Идентификатор меню : 428 (0x1AC)
    Формат : AVC
    Формат/Информация : Advanced Video Codec
    Профиль формата : Main@L3
    Параметр CABAC формата : Да
    Параметр ReFrames формата : 4 кадра
    Параметр GOP формата : M=4, N=32
    Идентификатор кодека : 27
    Продолжительность : 57 м. 43 с.
    Битрейт : 1035 Кбит/сек
    Ширина : 720 пикселей
    Высота : 576 пикселей
    Соотношение сторон : 16: 9
    Частота кадров : 25, 000 кадров/сек
    Стандарт вещания : PAL
    Цветовое пространство : YUV
    Субдискретизация насыщенности : 4: 2: 0
    Битовая глубина : 8 бит
    Тип развёртки : Чересстрочная
    Метод сохранения типа развёртки : Раздельные поля
    Порядок развёртки : Верхнее поле первое
    Бит/(Пиксели*Кадры) : 0.100
    Размер потока : 427 Мбайт (82%)
    Цветовой диапазон : Limited
    Основные цвета : BT.601 PAL
    Характеристики трансфера : BT.470 System B, BT.470 System G
    Коэффициенты матрицы : BT.601
    Аудио
    Идентификатор : 2428 (0x97C)
    Идентификатор меню : 428 (0x1AC)
    Формат : MPEG Audio
    Версия формата : Version 1
    Профиль формата : Layer 2
    Идентификатор кодека : 4
    Продолжительность : 57 м. 43 с.
    Вид битрейта : Постоянный
    Битрейт : 160 Кбит/сек
    Каналы : 2 канала
    Частота : 48, 0 КГц
    Метод сжатия : С потерями
    Задержка видео : 30 мс.
    Размер потока : 66, 1 Мбайт (13%)
    Язык : std
    Язык, дополнительно : Clean effects

    Скриншоты для ознакомления



    Все одноименные релизы в Клубе
    Время раздачи: Пн-Пт с 18: 00 до 22: 00 (до появления первых 3-5 скачавших)

    Онлайн видео Сказка о том, кто ходил страху учиться



    Сказка о том, кто ходил страху учиться/Von einem, der auszog, das Furchten zu lernen (2014) DVB
    загрузка...
    Рейтинг →
     (голосов: 1, оценка 4/5, голосовать можно 1 раз )

    Другие торренты по теме:

  • Сказка о том, кто ходил страху учиться / Von einem, der auszog, das Furchten zu lernen (2014) HDTVRip [H.264 / 1080p-LQ] [MVO, VO]


    • Комментарии (0):

      Информация

      Информация

        Посетители, находящиеся в группе Гости, не могут оставлять комментарии в данной новости.

        ↓ Меню




        ↓ Опрос

        Вы добавили сайт в закладки?
        Да
        Нет


        Top 10 за месяц (Мультфильмы)