.
Авторизация | Регистрация
Хочешь лучшие торренты? Добавь свой email!
Добавить

Торрент скачать бесплатно

» » Петька в космосе (1972) DVBRip торрент скачать бесплатно




    Петька в космосе (1972) DVBRip торрент скачать бесплатно

    Опубликовал: Админ | Дата: 1-09-2017, 05:00 | Просмотров: 0

    Производство: СССР
    Жанр: Детский, приключения
    Режиссер: Георгий Юнгвальд-Хилькевич

    Актеры
    Андрей Филимонов, Владимир Балон, Ольга Ваганова, Сергей Васильев, Борис Зайденберг, Елена Рябухина, Валентин Тарасов, Михаил Хукаленко, Татьяна Чернова, Юрий Горобец

    Описание

    Школьник Петя, любитель помастерить и пофантазировать, однажды соорудил космический лифт. О таком странном сюжете не догадывалась даже ВиаГра. Над ним, конечно, все посмеялись, но Петя не обиделся, а принялся за следующее изобретение — и вскоре сконструировал необычную кухню. Кухня всех привела в полный восторг, и учитель предложил послать Петю на выставку технического творчества.

    Продолжительность: 01: 03: 24
    Качество видео: DVBRip
    Субтитры: Отсутствуют
    Видео: MPEG-2, 720x576@768x576 (4: 3), ~3845 Kbps
    Аудио: MP2, 2 ch, 192 Kbps

    Общее
    Полное имя : D: Петька в космосе (1972).mpg
    Формат : MPEG-PS
    Размер файла : 1, 83 Гбайт
    Продолжительность : 1 ч. 3 м.
    Режим общего битрейта : Переменный
    Общий поток : 4121 Кбит/сек
    Видео
    Идентификатор : 224 (0xE0)
    Формат : MPEG Video
    Версия формата : Version 2
    Профиль формата : Main@Main
    Параметр BVOP формата : Да
    Параметр матрицы формата : Выборочная
    Параметр GOP формата : M=3, N=12
    Структура изображения : Frame
    Продолжительность : 1 ч. 3 м.
    Вид битрейта : Переменный
    Битрейт : 3847 Кбит/сек
    Максимальный битрейт : 5000 Кбит/сек
    Ширина : 720 пикселей
    Высота : 576 пикселей
    Соотношение сторон : 4: 3
    Частота кадров : 25, 000 кадров/сек
    Стандарт вещания : PAL
    Цветовое пространство : YUV
    Субдискретизация насыщенности : 4: 2: 0
    Битовая глубина : 8 бит
    Тип развёртки : Чересстрочная
    Порядок развёртки : Верхнее поле первое
    Метод сжатия : С потерями
    Бит/(Пиксели*Кадры) : 0.371
    Временной код первого кадра : 00: 00: 00: 00
    Оригинал временного кода : Group of pictures t_head
    GOP, открыто/закрыто : Открыто
    GOP, открыто/закрыто на первом кадре : Закрыто
    Размер потока : 1, 70 Гбайт (93%)
    Аудио
    Идентификатор : 192 (0xC0)
    Формат : MPEG Audio
    Версия формата : Version 1
    Профиль формата : Layer 2
    Продолжительность : 1 ч. 3 м.
    Вид битрейта : Постоянный
    Битрейт : 192 Кбит/сек
    Каналы : 2 канала
    Частота : 48, 0 КГц
    Метод сжатия : С потерями
    Размер потока : 87, 1 Мбайт (5%)

    Скриншоты для ознакомления



    Все одноименные релизы в Клубе
    Время раздачи: 24/7 (круглосуточно) (до появления первых 3-5 скачавших)

    Онлайн видео Маша и Медведь: Спокойствие, только спокойствие! (2017) WEB-DL [H.264



    Петька в космосе (1972) DVBRip
    загрузка...
    Рейтинг →
     (голосов: 1, оценка 4/5, голосовать можно 1 раз )

    Другие торренты по теме:

  • Петька в космосе (1972) SATRip скачать через торрент бесплатно


    • Комментарии (0):

      Информация

      Информация

        Посетители, находящиеся в группе Гости, не могут оставлять комментарии в данной новости.

        ↓ Меню




        ↓ Опрос

        Вы добавили сайт в закладки?
        Да
        Нет


        Top 10 за месяц (Мультфильмы)