.
Авторизация | Регистрация
Хочешь лучшие торренты? Добавь свой email!
Добавить

Торрент скачать бесплатно

» » Маша и Медведь: Спокойствие, только спокойствие! (2017) WEB-DL [H.264 / 1080p-LQ] (Серия 66) торрент скачать бесплатно




    Маша и Медведь: Спокойствие, только спокойствие! (2017) WEB-DL [H.264 / 1080p-LQ] (Серия 66) торрент скачать бесплатно

    Опубликовал: Админ | Дата: 1-09-2017, 05:00 | Просмотров: 0

    Производство: Россия/Студия Анимаккорд
    Жанр: Детский, комедия, семейный
    Режиссер: Олег Кузовков, Олег Ужинов, Денис Червяцов
    Персонажи: Алина Кукушкина, Эдуард Назаров, Борис Кутневич

    Описание

    Как непросто сохранять спокойствие, когда в доме бушуют два маленьких сорванца. Панда и Маша шалят днями напролёт. Чтобы справиться со стрессом, Мишке нужен хороший отдых. Получится ли ему восстановить внутренние силы или двое непосед не дадут ему покоя?

    Возраст: 0+ (для любой зрительской аудитории)
    Релиз от: Алехаndr
    Продолжительность: 00: 07: 26
    Качество видео: WEB-DL
    Субтитры: Отсутствуют
    Видео: AVC/H.264, 1920x1080 (16: 9), ~3775 Kbps
    Аудио: AC3, 2 ch, 192 Kbps

    Общее
    Уникальный идентификатор : 137225984032102625494907148634943867226 (0x673CC35FBC0AA4EFDAE9F3AD3DE7495A)
    Полное имя : D: Маша и Медведь - Спокойствие, только спокойствие! Серия 66).by.Алехаndr.mkv
    Формат : Matroska
    Версия формата : Version 4/Version 2
    Размер файла : 216 Мбайт
    Продолжительность : 7 м. 26 с.
    Общий поток : 4049 Кбит/сек
    Программа кодирования : Lavf57.71.100
    Библиотека кодирования : Lavf57.71.100
    ErrorDetectionType : Per level 1
    Видео
    Идентификатор : 1
    Формат : AVC
    Формат/Информация : Advanced Video Codec
    Профиль формата : High@L4
    Параметр CABAC формата : Да
    Параметр RefFrames формата : 2 кадра
    Идентификатор кодека : V_MPEG4/ISO/AVC
    Продолжительность : 7 м. 26 с.
    Битрейт : 3776 Кбит/сек
    Ширина : 1920 пикселей
    Высота : 1080 пикселей
    Соотношение сторон : 16: 9
    Режим частоты кадров : Постоянный
    Частота кадров : 25, 000 кадров/сек
    Цветовое пространство : YUV
    Субдискретизация насыщенности : 4: 2: 0
    Битовая глубина : 8 бит
    Тип развёртки : Прогрессивная
    Бит/(Пиксели*Кадры) : 0.073
    Размер потока : 201 Мбайт (93%)
    Default : Да
    Forced : Нет
    Цветовой диапазон : Limited
    Основные цвета : BT.709
    Характеристики трансфера : BT.709
    Коэффициенты матрицы : BT.709
    Аудио
    Идентификатор : 2
    Формат : AC-3
    Формат/Информация : Audio Coding 3
    Параметр Endianness формата : Big
    Идентификатор кодека : A_AC3
    Продолжительность : 7 м. 26 с.
    Вид битрейта : Постоянный
    Битрейт : 192 Кбит/сек
    Каналы : 2 канала
    Расположение каналов : Front: L R
    Частота : 44, 1 КГц
    Частота кадров : 28, 711 кадров/сек (1536 SPF)
    Битовая глубина : 16 бит
    Метод сжатия : С потерями
    Задержка видео : -40 мс.
    Размер потока : 10, 2 Мбайт (5%)
    Язык : unknown
    ServiceKind/String : Complete Main
    Default : Да
    Forced : Нет

    Скриншоты для ознакомления



    Все одноименные релизы в Клубе
    Время раздачи: 24/7 (круглосуточно) (до появления первых 3-5 скачавших)

    Онлайн видео Маша и Медведь: Спокойствие, только спокойствие! (2017) WEB-DL [H.264



    Маша и Медведь: Спокойствие, только спокойствие! (2017) WEB-DL [H.264/1080p-LQ] (Серия 66)
    загрузка...
    Рейтинг →
     (голосов: 1, оценка 5/5, голосовать можно 1 раз )

    Другие торренты по теме:

  • Маша и Медведь: Пещерный медведь (2015) WEBRip (Серия 48)
  • Маша и Медведь: Пещерный медведь (2015) WEB-DL [H.264 / 1080p-LQ] (Серия 48) скачать через торрент бесплатно
  • Маша и Медведь: Пещерный медведь (2015) WEB-DL (Серия 48) [H.264 / 720p-LQ]
  • Маша и медведь (2009-2014) BDRip [1080p] (1-45 серии) [Обновляемый]
  • Маша и медведь (1-45 серии) (2009-2014) [1080p] BDRemux [Обновляемый]
  • Маша и Медведь (1-45 серии) (2009-2014) [H.264] BDRip [Обновляемая]
  • Маша и Медведь (2009-2013) DVDRip / HDRip (1-45 серии) + Машины сказки (2011-2013) DVDRip (1-26 серии) [Оновляемая]
  • Маша и Медведь: Запутанная история (2014) BDRemux [1080p] (Серия 45)


    • Комментарии (0):

      Информация

      Информация

        Посетители, находящиеся в группе Гости, не могут оставлять комментарии в данной новости.

        ↓ Меню




        ↓ Опрос

        Вы добавили сайт в закладки?
        Да
        Нет


        Top 10 за месяц (Мультфильмы)