.
Авторизация | Регистрация
Хочешь лучшие торренты? Добавь свой email!
Добавить

Торрент скачать бесплатно

» » Meitantei Conan | Detective Conan OVA | Детектив Конан OVA с субтитрами [2000-2012, OVA, 2 из 18] DVDRip 480p raw торрент скачать бесплатно




    Meitantei Conan | Detective Conan OVA | Детектив Конан OVA с субтитрами [2000-2012, OVA, 2 из 18] DVDRip 480p raw торрент скачать бесплатно

    Опубликовал: Админ | Дата: 31-08-2017, 05:00 | Просмотров: 2

    Тип: OVA
    Жанр: Комедия, детектив, романтика, сёнэн
    Количество пронумерованных OVA: 1 из 12 (4й)
    Количество Магических файлов: 1 из 6 (2й)
    Продолжительность: один эпизод 24 минуты
    Качество видео: DVDRip
    Озвучка: Оригинальная
    Язык озвучки: Японский
    Субтитры: Русские.
    Дата выпуска: 2000-2012
    Производство: Tokyo Movie Shinsha
    Автор оригинала: Госё Аояма
    Режиссер: MF 2: Ямамото Ясуйтиро,
    ova 4: Сато Масато

    Описание

    Любому мужчине известно - либо девушкой занимайся, либо мировыми проблемами! Стоило 17-летнему Шиничи Кудо на прогулке с подругой детства Ран Мори отвлечься на деяния подозрительных лиц, как злые бандиты схватили его и заставили принять странную пилюлю, которая обратила парня в 7-летнего мальчика. В ногах правды нет, сказал кто то из толпы, к чему не понятно. Чудом выживший Кудо бросился за помощью к другу, но даже гениальный профессор Агаса не смог ничего поделать. А уж когда в дом профессора ворвалась взволнованная Ран и спросила незнакомого ребенка, кто он такой, бедняга смог только скользнуть взглядом по книжным полкам и выдавить: Эдогава… Конан.
    Пойти против зловещей Черной Организации – не шутка, но герои и не думали отступать. Родители Кудо покинули страну, а малыш Конан поселился в семье Мори вместе с любимой Ран и ее отцом Когоро, бывшим полицейским. Благодаря собственному незаурядному уму, связям Когоро и технической поддержке профессора, мальчик-детектив вместе с друзьями активно включился в расследование преступлений и очищение Японии от криминала. Ну а главный вопрос сериала прост – сможет ли юный Эдогава побороть вражеские замыслы прежде, чем ненаглядная Ран сообразит, с кем живет под одной крышей?
    © Hollow, World Art

    Скриншоты для ознакомления



    Раздача временная. До появления русской озвучки.
    Все раздачи Конана на трекере.
    Русская озвучка.
    -Сериал DVD-RIP (SD)
    - -Часть 1. Эпизоды 0001-0134.
    - -Часть 2. Эпизоды 0135-0254.
    - -Часть 3. Эпизоды 0255-0353.
    - -Часть 4. Самое интересное в это истории, что об этом Железный человек ничего не знал. Эпизоды 0354-037x.(планируется до 0452)
    -Сериал WEB-RIP и TV-RIP(HD) Usotsuki, Moonlighters, Horrible Subs и другие
    - - Часть 5.(планируются эпизоды 0453-0527) нет русской озвучки
    - - Часть 6.(планируются эпизоды 0528-0605) идет монтаж видео usotsuki с озвучкой Mai, эпизоды 594-600 в процессе.
    - - Часть 7.(планируются эпизоды 0606-0680) видео usotsuki для эпизодов 606 - 621 пока не выпущено.
    - - Часть 8.(планируются эпизоды 0681-0778) нет русской озвучки
    - - Часть 9.(планируются эпизоды 0779-08xx) есть в озвучке эпизоды 799, 800
    -Сериал (HD). Раздачи других авторов.
    - -Оригинальные эпизоды 0594-0621
    -Фильмы BDRIP 720p (HD)
    - -Фильмы 01-08, 11-20. О таком странном сюжете не догадывалась даже Верка Сердючка. Спешлы S3, S4. Фильм-спешл.
    -OVA DVD-RIP (SD)
    - -OVA 1-3, 5-12. Магические файлы 5 и 6.
    Русские субтитры.
    -Сериал DVD-RIP (SD)
    - -Часть 1. Эпизоды 0371-0452.
    -Сериал WEB-RIP и TV-RIP(HD) Usotsuki, Moonlighters, Horrible Subs и другие
    - -Часть 2. Эпизоды 0453-0527.
    - -Часть 3. Эпизоды 0528-0546.
    .....есть также русские субтитры для других серий (625, 626, 748-752, 754-756 и другие)
    .....В процессе изготовления перевод 699-704 (С)DJ VK
    -Фильмы BDRIP 720p (HD)
    - -Фильмы 09-10. Спешлы S5-S6.
    -OVA DVD-RIP (SD)
    - -OVA 4. Магический файл 2.
    -Сериал (SD и HD). Раздачи других авторов.
    - -Часть 1. Эпизоды 0001-0452.
    - -Часть 2. Эпизоды 0453-0546.(планируется до 0645) .
    - -Часть 4. Эпизоды 0810-0849.
    Английские субтитры.
    -Сериал WEB-RIP и TV-RIP(HD)
    - - хардсаб 547-593 и 621-657
    - - внешние субтитры 658-870 (всё, что не переведено на русский)
    .....на дальнюю перспективу
    -OVA и спешлы DVD-RIP (SD)
    - - хардсаб Магические файлы 3 и 4.
    - - промо ролики к фильмам
    - - короткие истории Аоямы
    - - Detective Conan vs. Wooo
    OVA
    Meitantei Conan: Conan to Kid to Crystal Mother | Detective Conan OVA 04: Conan, Kid, and the Crystal Mother | Детектив Конан OVA 04: Конан, Кид и Мать-Кристал
    Ссылки: World-Art
    Oписание фильма:
    Дата выпуска: 2004
    Продолжительность фильма: 25 мин.
    Видео: AVC/H.264, 704x528, 23.97fps, ~1315 Kbps
    Аудио: AС3, 48000Hz, stereo, 192kbps, CBR
    Субтитры:
    - Перевод: Tachikoma h, Teisson h.
    - Оформление, редактура: Smarter
    - Лирика: AlenFuns
    Рекомендуется смотреть после: фильма 8.

    Скриншоты для ознакомления



    Полное имя : D: DownloadsДетектив КонанФильмы и спешлыOVA 04 (после фильма 08) 2004 704x528 (субтитры).mkv
    Формат : Matroska
    Версия формата : Version 4/Version 2
    Размер файла : 271 Мбайт
    Продолжительность : 25 м. 4 с.
    Общий поток : 1510 Кбит/сек
    Дата кодирования : UTC 2017-08-28 17: 12: 08
    Программа кодирования : mkvmerge v12.0.0 (\'Trust/Lust\') 64bit
    Библиотека кодирования : libebml v1.3.4 + libmatroska v1.4.5
    Видео
    Идентификатор : 2
    Формат : AVC
    Формат/Информация : Advanced Video Codec
    Профиль формата : High@L5.1
    Параметр CABAC формата : Да
    Параметр RefFrames формата : 4 кадра
    Идентификатор кодека : V_MPEG4/ISO/AVC
    Продолжительность : 25 м. Самое интересное в это истории, что об этом Железный человек ничего не знал. 4 с.
    Битрейт : 1315 Кбит/сек
    Ширина : 704 пикселя
    Высота : 528 пикселей
    Соотношение сторон : 4: 3
    Режим частоты кадров : Переменный
    Частота кадров : 23, 976 (24000/1001) кадра/сек
    Цветовое пространство : YUV
    Субдискретизация насыщенности : 4: 2: 0
    Битовая глубина : 8 бит
    Тип развёртки : Прогрессивная
    Бит/(Пиксели*Кадры) : 0.148
    Размер потока : 236 Мбайт (87%)
    Заголовок : Video
    Библиотека кодирования : x264 core 45 svn-465
    Настройки программы : cabac=1/ref=1/deblock=1: 0: 0/analyse=0x3: 0x133/me=hex/subme=5/brdo=0/mixed_ref=0/me_range=16/chroma_me=1/trellis=1/8x8dct=1/cqm=0/chroma_qp_offset=0/slices=1/nr=0/bframes=2/b_pyramid=1/b_adapt=1/b_bias=0/direct=2/wpredb=1/bime=1/keyint=250/keyint_min=25/scenecut=40/rc=2pass/bitrate=1315/ratetol=1.0/rceq=\'blurCplx^(1-qComp)\'/qcomp=0.60/qpmin=15/qpmax=25/qpstep=4/cplxblur=20.0/qblur=0.5/ip_ratio=1.40/pb_ratio=1.30
    Язык : Japanese
    Default : Да
    Forced : Нет
    Аудио
    Идентификатор : 3
    Формат : AC-3
    Формат/Информация : Audio Coding 3
    Параметр Endianness формата : Big
    Идентификатор кодека : A_AC3
    Продолжительность : 25 м. 4 с.
    Вид битрейта : Постоянный
    Битрейт : 192 Кбит/сек
    Каналы : 2 канала
    Расположение каналов : Front: L R
    Частота : 48, 0 КГц
    Частота кадров : 31, 250 кадров/сек (1536 SPF)
    Битовая глубина : 16 бит
    Метод сжатия : С потерями
    Задержка видео : 6 мс.
    Размер потока : 34, 4 Мбайт (13%)
    Заголовок : Audio
    Язык : Japanese
    ServiceKind/String : Complete Main
    Default : Да
    Forced : Нет
    Текст
    Идентификатор : 1
    Формат : ASS
    Идентификатор кодека : S_TEXT/ASS
    Идентификатор кодека/Информация : Advanced Sub Station Alpha
    Продолжительность : 24 м. 58 с.
    Битрейт : 159 бит/сек
    ElementCount : 361
    Метод сжатия : Без потерь
    Размер потока : 29, 2 Кбайт (0%)
    Default : Да
    Forced : Нет
    Меню
    00: 00: 00.000 : en: OVA\'s Advice
    00: 00: 14.972 : en: CONAN logo
    00: 00: 21.979 : en: 1st Part
    00: 00: 39.372 : en: 2nd Part
    00: 14: 37.687 : en: 3rd Part
    00: 23: 14.517 : en: Ending Theme
    00: 24: 38.768 : en: 4th Part
    Магические файлы
    Meitantei Conan Magic File 2: Kudou Shin\'ichi Nazo no Kabe to Kuro Lab Jiken | Detective Conan Magic File 2: Kudou Shinichi - The Case of the Mysterious Wall and the Black Lab | Детектив Конан Магический файл 2: Дело о таинственной стене и чёрном лабрадоре
    Ссылки: World-Art
    Oписание фильма:
    Дата выпуска: 19 апреля 2008
    Продолжительность фильма: 30 мин.
    Видео: AVC/H.264, 880x480, 23.97fps, ~623 Kbps
    Аудио: AC3, 48000Hz, stereo, 448kbps, CBR
    Субтитры: Встроенные в контейнер
    - Перевод: wquolz
    - Редакция: powerwar, Hitsugaya936
    - Оформление: powerwar
    - Лирика: AlenFuns
    Рекомендуется смотреть перед: фильмом 12.

    Скриншоты для ознакомления



    Полное имя : D: DownloadsДетектив КонанФильмы и спешлыMagic File 2 (перед фильмом 12) Дело о таинственной стене и чёрном лабрадоре 2008 880x480 (субтитры).mkv
    Формат : Matroska
    Версия формата : Version 4/Version 2
    Размер файла : 222 Мбайт
    Продолжительность : 29 м. 32 с.
    Общий поток : 1053 Кбит/сек
    Название фильма : APTX4869CONANMAGIC FILE2工藤新一 謎の壁と黒ラブ事件
    Дата кодирования : UTC 2017-08-28 17: 14: 59
    Программа кодирования : mkvmerge v12.0.0 (\'Trust/Lust\') 64bit
    Библиотека кодирования : libebml v1.3.4 + libmatroska v1.4.5
    Авторское право : http://www.aptx.cn
    ARTIST : 名侦探柯南事务所字幕组SquallATF压制
    Видео
    Идентификатор : 2
    Формат : AVC
    Формат/Информация : Advanced Video Codec
    Профиль формата : High@L3
    Параметр CABAC формата : Да
    Параметр RefFrames формата : 2 кадра
    Идентификатор кодека : V_MPEG4/ISO/AVC
    Продолжительность : 28 м. 58 с.
    Битрейт : 623 Кбит/сек
    Ширина : 880 пикселей
    Высота : 480 пикселей
    Соотношение сторон : 1, 85: 1
    Режим частоты кадров : Постоянный
    Частота кадров : 23, 976 (24000/1001) кадра/сек
    Цветовое пространство : YUV
    Субдискретизация насыщенности : 4: 2: 0
    Битовая глубина : 8 бит
    Тип развёртки : Прогрессивная
    Бит/(Пиксели*Кадры) : 0.062
    Размер потока : 129 Мбайт (58%)
    Библиотека кодирования : x264 core 68 r1181M 49bf767
    Настройки программы : cabac=1/ref=2/deblock=1: 0: 0/analyse=0x3: 0x133/me=umh/me-prepass=0/subme=9/psy_rd=0.0: 0.0/mixed_ref=1/me_range=16/chroma_me=1/trellis=2/8x8dct=1/cqm=0/deadzone=21, 11/chroma_qp_offset=0/threads=1/thread_queue=1/nr=0/decimate=1/mbaff=0/bframes=2/b_pyramid=0/b_adapt=2/b_bias=0/direct=3/wpredb=1/keyint=250/keyint_min=25/scenecut=40/rc=crf/crf=22.0/qcomp=0.60/qpmin=10/qpmax=51/qpstep=4/ip_ratio=1.40/pb_ratio=1.30/aq=1/aq-strength=0.50: 0.50: 0.50: 0.50: 0.50: 0.50: 0.50/aq-sensitivity=10.00/aq-ifactor=1.00: 1.00/aq-pfactor=1.00: 1.00/aq-bfactor=1.00: 1.00/aq-boundary=192: 64: 24
    Язык : Russian
    Default : Да
    Forced : Нет
    Аудио
    Идентификатор : 3
    Формат : AC-3
    Формат/Информация : Audio Coding 3
    Параметр Endianness формата : Big
    Идентификатор кодека : A_AC3
    Продолжительность : 28 м. Прикольно все это наверно придумал Железный человек потратив достаточно времени. 57 с.
    Вид битрейта : Постоянный
    Битрейт : 448 Кбит/сек
    Каналы : 2 канала
    Расположение каналов : Front: L R
    Частота : 48, 0 КГц
    Частота кадров : 31, 250 кадров/сек (1536 SPF)
    Битовая глубина : 16 бит
    Метод сжатия : С потерями
    Задержка видео : 23 мс.
    Размер потока : 92, 8 Мбайт (42%)
    Язык : Japanese
    ServiceKind/String : Complete Main
    Default : Да
    Forced : Нет
    Текст
    Идентификатор : 1
    Формат : ASS
    Идентификатор кодека : S_TEXT/ASS
    Идентификатор кодека/Информация : Advanced Sub Station Alpha
    Продолжительность : 29 м. 30 с.
    Битрейт : 155 бит/сек
    ElementCount : 380
    Метод сжатия : Без потерь
    Размер потока : 33, 7 Кбайт (0%)
    Default : Да
    Forced : Нет
    Меню
    00: 00: 00.000 : : Main
    00: 27: 29.982 : : ED
    Время раздачи: c 10.00 до 22.00 (до появления первых 3-5 скачавших)

    Онлайн видео Meitantei Conan



    Meitantei Conan | Detective Conan OVA | Детектив Конан OVA с субтитрами [2000-2012, OVA, 2 из 18] DVDRip 480p raw
    загрузка...
    Рейтинг →
     (голосов: 1, оценка 3/5, голосовать можно 1 раз )

    Другие торренты по теме:

  • Meitantei Conan / Detective Conan / Детектив Конан [1996, TV, 286-380, 401-402 из >700] DVDRip raw
  • Meitantei Conan / Detective Conan / Детектив Конан [1996, TV, 1-452 из >800] DVDRip 624p raw скачать через торрент бесплатно
  • Meitantei Conan / Detective Conan / Детектив Конан [1996, TV, 453-504 из >800] DVDRip 576p raw
  • Meitantei Conan / Detective Conan / Детектив Конан [1996, TV, 453-539 из >800] DVDRip 576p raw
  • Meitantei Conan | Detective Conan | Детектив Конан [1996, TV, 001-275 из >869] DVDRip 480p rus
  • Meitantei Conan | Detective Conan | Детектив Конан. Полнометражные фильмы. [1997-2004, Movie, 8 из 21] BDRip 720p 10-bit rus
  • Meitantei Conan | Detective Conan OVA | Детектив Конан OVA [2000-2012, OVA, 13 из 18] DVDRip 480p rus
  • Meitantei Conan | Detective Conan | Детектив Конан [1996, TV, 810-849 из >870] WEBRip 720p raw


    • Комментарии (0):

      Информация

      Информация

        Посетители, находящиеся в группе Гости, не могут оставлять комментарии в данной новости.

        ↓ Меню




        ↓ Опрос

        Вы добавили сайт в закладки?
        Да
        Нет


        Top 10 за месяц (Мультфильмы)