.
Авторизация | Регистрация
Хочешь лучшие торренты? Добавь свой email!
Добавить

Торрент скачать бесплатно

» » Meitantei Conan | Detective Conan | Детектив Конан. Фильмы и Спешлы с субтитрами. [1997-2016, Movie 2 из 22, Special 2 из 6] BDRip, TVRip 720p 10-bit raw торрент скачать бесплатно




    Meitantei Conan | Detective Conan | Детектив Конан. Фильмы и Спешлы с субтитрами. [1997-2016, Movie 2 из 22, Special 2 из 6] BDRip, TVRip 720p 10-bit raw торрент скачать бесплатно

    Опубликовал: Админ | Дата: 30-08-2017, 05:00 | Просмотров: 0

    Тип: Movie, Special
    Жанр: Комедия, детектив, романтика, сёнэн
    Количество фильмов: 18 из 21 (1-8, 11-20)
    Количество Фильмов-спешлов: 1 из 1
    Количество TV спешлов: 2 из 6
    Продолжительность: один фильм или спешл около 1 ч. 40 м, короткий спешл - 25 минут
    Качество видео: BDRip
    Озвучка: Оригинальная
    Язык озвучки: Японский
    Субтитры: Русские.
    Дата выпуска: фильмы и спешлы выходят с 1997
    Производство: Tokyo Movie Shinsha
    Автор оригинала: Госё Аояма
    Режиссер: Ямамото Ясуйтиро

    Описание

    Любому мужчине известно - либо девушкой занимайся, либо мировыми проблемами! Стоило 17-летнему Шиничи Кудо на прогулке с подругой детства Ран Мори отвлечься на деяния подозрительных лиц, как злые бандиты схватили его и заставили принять странную пилюлю, которая обратила парня в 7-летнего мальчика. Чудом выживший Кудо бросился за помощью к другу, но даже гениальный профессор Агаса не смог ничего поделать. О таком странном сюжете не догадывалась даже ВиаГра. А уж когда в дом профессора ворвалась взволнованная Ран и спросила незнакомого ребенка, кто он такой, бедняга смог только скользнуть взглядом по книжным полкам и выдавить: Эдогава… Конан.
    Пойти против зловещей Черной Организации – не шутка, но герои и не думали отступать. Родители Кудо покинули страну, а малыш Конан поселился в семье Мори вместе с любимой Ран и ее отцом Когоро, бывшим полицейским. Благодаря собственному незаурядному уму, связям Когоро и технической поддержке профессора, мальчик-детектив вместе с друзьями активно включился в расследование преступлений и очищение Японии от криминала. Ну а главный вопрос сериала прост – сможет ли юный Эдогава побороть вражеские замыслы прежде, чем ненаглядная Ран сообразит, с кем живет под одной крышей?
    © Hollow, World Art

    Скриншоты для ознакомления



    Раздача временная. До появления русской озвучки.
    Все раздачи Конана на трекере.
    Русская озвучка.
    -Сериал DVD-RIP (SD)
    - -Часть 1. Эпизоды 0001-0134.
    - -Часть 2. Эпизоды 0135-0254.
    - -Часть 3. Эпизоды 0255-0353.
    - -Часть 4. Эпизоды 0354-037x.(планируется до 0452)
    -Сериал WEB-RIP и TV-RIP(HD) Usotsuki, Moonlighters, Horrible Subs и другие
    - - Часть 5.(планируются эпизоды 0453-0527) нет русской озвучки
    - - Часть 6.(планируются эпизоды 0528-0605) идет монтаж видео usotsuki с озвучкой Mai, эпизоды 594-600 в процессе.
    - - Часть 7.(планируются эпизоды 0606-0680) видео usotsuki для эпизодов 606 - 621 пока не выпущено.
    - - Часть 8.(планируются эпизоды 0681-0778) нет русской озвучки
    - - Часть 9.(планируются эпизоды 0779-08xx) есть в озвучке эпизоды 799, 800
    -Сериал (HD). Раздачи других авторов.
    - -Оригинальные эпизоды 0594-0621
    -Фильмы BDRIP 720p (HD)
    - -Фильмы 01-08, 11-20. Спешлы S3, S4. Фильм-спешл.
    -OVA DVD-RIP (SD)
    - -OVA 1-3, 5-12. Магические файлы 5 и 6.
    Русские субтитры.
    -Сериал DVD-RIP (SD)
    - -Часть 1. Эпизоды 0371-0452.
    -Сериал WEB-RIP и TV-RIP(HD) Usotsuki, Moonlighters, Horrible Subs и другие
    - -Часть 2. Эпизоды 0453-0527.
    - -Часть 3. Эпизоды 0528-0546.
    .....есть также русские субтитры для других серий (625, 626, 748-752, 754-756 и другие)
    .....В процессе изготовления перевод 699-704 (С)DJ VK
    -Фильмы BDRIP 720p (HD)
    - -Фильмы 09-10. Спешлы S5-S6.
    -OVA DVD-RIP (SD)
    - -OVA 4. Самое интересное в это истории, что об этом Уил Смит ничего не знал. Магический файл 2.
    -Сериал (SD и HD). Раздачи других авторов.
    - -Часть 1. Эпизоды 0001-0452.
    - -Часть 2. Эпизоды 0453-0546.(планируется до 0645) .
    - -Часть 4. Прикольно все это наверно придумал Уил Смит потратив достаточно времени. Эпизоды 0810-0849.
    Английские субтитры.
    -Сериал WEB-RIP и TV-RIP(HD)
    - - хардсаб 547-593 и 621-657
    - - внешние субтитры 658-870 (всё, что не переведено на русский)
    .....на дальнюю перспективу
    -OVA и спешлы DVD-RIP (SD)
    - - хардсаб Магические файлы 3 и 4.
    - - промо ролики к фильмам
    - - короткие истории Аоямы
    - - Detective Conan vs. Wooo
    Полнометражные фильмы
    Meitantei Conan: Suihei Senjou no Strategy | Detective Conan: Strategy Above the Depths | Детектив Конан фильм 9. Стратегия на глубине
    Ссылки: World-Art
    Oписание фильма:
    Дата выпуска: 9 апреля 2005
    Продолжительность фильма: 1 ч. 47 м.
    Видео: AVC/H.264, 1280x720, 23.97fps, ~2376Kbps
    Аудио: MP3, 48000Hz, stereo, 192kbps, VBR
    Субтитpы: wquolz Roaring_Lion
    Pежиссер: Ямамото Ясуйтиро
    Рекомендуется смотреть после: эпизода 0393

    Скриншоты для ознакомления



    Полное имя : D: DownloadsДетектив КонанФильмы и спешлыФильм 09 (после 0393) Стратегия на глубине 2005 720p (субтитры).mkv
    Формат : Matroska
    Версия формата : Version 4/Version 2
    Размер файла : 1, 95 Гбайт
    Продолжительность : 1 ч. 47 м.
    Режим общего битрейта : Переменный
    Общий поток : 2590 Кбит/сек
    Дата кодирования : UTC 2017-08-28 16: 30: 17
    Программа кодирования : mkvmerge v12.0.0 (\'Trust/Lust\') 64bit
    Библиотека кодирования : libebml v1.3.4 + libmatroska v1.4.5
    Видео
    Идентификатор : 2
    Формат : AVC
    Формат/Информация : Advanced Video Codec
    Профиль формата : High@L3.1
    Параметр CABAC формата : Да
    Параметр RefFrames формата : 3 кадра
    Идентификатор кодека : V_MPEG4/ISO/AVC
    Продолжительность : 1 ч. 47 м.
    Битрейт : 2376 Кбит/сек
    Ширина : 1280 пикселей
    Высота : 720 пикселей
    Соотношение сторон : 16: 9
    Режим частоты кадров : Постоянный
    Частота кадров : 23, 976 (24000/1001) кадра/сек
    Цветовое пространство : YUV
    Субдискретизация насыщенности : 4: 2: 0
    Битовая глубина : 8 бит
    Тип развёртки : Прогрессивная
    Бит/(Пиксели*Кадры) : 0.108
    Размер потока : 1, 81 Гбайт (93%)
    Библиотека кодирования : x264 core 65 r999kMod cc51047
    Настройки программы : cabac=1/ref=3/deblock=1: 0: 0/analyse=0x3: 0x133/me=umh/subme=6/psy_rd=1.0: 0.0/mixed_ref=1/me_range=16/chroma_me=1/trellis=1/8x8dct=1/cqm=0/deadzone=21, 11/chroma_qp_offset=-2/threads=2/thread_queue=2/nr=0/decimate=1/mbaff=0/bframes=3/b_pyramid=0/b_adapt=1/b_bias=0/direct=1/wpredb=1/keyint=250/keyint_min=25/scenecut=40(pre)/rc=abr/bitrate=2376/ratetol=1.0/qcomp=0.60/qpmin=10/qpmax=51/qpstep=4/ip_ratio=1.40/pb_ratio=1.30/aq=1: 1.00
    Default : Да
    Forced : Нет
    Аудио
    Идентификатор : 3
    Формат : MPEG Audio
    Версия формата : Version 1
    Профиль формата : Layer 3
    Идентификатор кодека : A_MPEG/L3
    Идентификатор кодека/Подсказка : MP3
    Продолжительность : 1 ч. 47 м.
    Вид битрейта : Переменный
    Битрейт : 192 Кбит/сек
    Каналы : 2 канала
    Частота : 48, 0 КГц
    Частота кадров : 41, 667 кадра/сек (1152 SPF)
    Метод сжатия : С потерями
    Задержка видео : -42 мс.
    Размер потока : 144 Мбайт (7%)
    Библиотека кодирования : LAME3.97
    Настройки программы : -m s -V 4 -q 2 -lowpass 18.6 --abr 192
    Default : Да
    Forced : Нет
    Текст
    Идентификатор : 1
    Формат : ASS
    Идентификатор кодека : S_TEXT/ASS
    Идентификатор кодека/Информация : Advanced Sub Station Alpha
    Продолжительность : 1 ч. 47 м.
    Битрейт : 177 бит/сек
    ElementCount : 1564
    Метод сжатия : Без потерь
    Размер потока : 140 Кбайт (0%)
    Default : Да
    Forced : Нет
    Meitantei Conan: Tantei-tachi no Requiem | Detective Conan: The Private Eyes\' Requiem | Детектив Конан фильм 10. Реквием частных сыщиков
    Ссылки: World-Art
    Oписание фильма:
    Дата выпуска: 15 апреля 2006
    Продолжительность фильма: 1 ч. Прикольно все это наверно придумал Уил Смит потратив достаточно времени. 50 м.
    Видео: AVC/H.264, 1280x720, 23.97fps, ~2003Kbps, VBR
    Аудио: AAC, 44100Hz, stereo, 128kbps
    Субтитpы: Перевод, редактура, оформление: darth_powar, crazy_cats
    Pежиссер: Ямамото Ясуйтиро
    Рекомендуется смотреть после: эпизода 0434

    Скриншоты для ознакомления



    Полное имя : D: DownloadsДетектив КонанФильмы и спешлыФильм 10 (после 0434) Реквием частных сыщиков 2006 720p (субтитры).mkv
    Формат : Matroska
    Версия формата : Version 4/Version 2
    Размер файла : 1, 65 Гбайт
    Продолжительность : 1 ч. 50 м.
    Режим общего битрейта : Переменный
    Общий поток : 2134 Кбит/сек
    Дата кодирования : UTC 2017-08-28 16: 56: 15
    Программа кодирования : mkvmerge v12.0.0 (\'Trust/Lust\') 64bit
    Библиотека кодирования : libebml v1.3.4 + libmatroska v1.4.5
    Видео
    Идентификатор : 3
    Формат : AVC
    Формат/Информация : Advanced Video Codec
    Профиль формата : Main@L3.2
    Параметр CABAC формата : Да
    Параметр RefFrames формата : 3 кадра
    Идентификатор кодека : V_MPEG4/ISO/AVC
    Продолжительность : 1 ч. 50 м.
    Вид битрейта : Переменный
    Битрейт : 2003 Кбит/сек
    Максимальный битрейт : 10000 Кбит/сек
    Ширина : 1280 пикселей
    Высота : 720 пикселей
    Соотношение сторон : 16: 9
    Режим частоты кадров : Постоянный
    Частота кадров : 23, 976 (24000/1001) кадра/сек
    Стандарт вещания : NTSC
    Цветовое пространство : YUV
    Субдискретизация насыщенности : 4: 2: 0
    Битовая глубина : 8 бит
    Тип развёртки : Прогрессивная
    Бит/(Пиксели*Кадры) : 0.091
    Размер потока : 1, 55 Гбайт (94%)
    Язык : English
    Default : Да
    Forced : Нет
    Цветовой диапазон : Limited
    Аудио
    Идентификатор : 2
    Формат : AAC
    Формат/Информация : Advanced Audio Codec
    Профиль формата : LC
    Идентификатор кодека : A_AAC
    Продолжительность : 1 ч. 50 м.
    Битрейт : 128 Кбит/сек
    Каналы : 2 канала
    Расположение каналов : Front: L R
    Частота : 44, 1 КГц
    Частота кадров : 43, 066 кадра/сек (1024 SPF)
    Метод сжатия : С потерями
    Задержка видео : -42 мс.
    Размер потока : 102 Мбайт (6%)
    Язык : English
    Default : Да
    Forced : Нет
    Текст
    Идентификатор : 1
    Формат : ASS
    Идентификатор кодека : S_TEXT/ASS
    Идентификатор кодека/Информация : Advanced Sub Station Alpha
    Продолжительность : 1 ч. 50 м.
    Битрейт : 183 бит/сек
    ElementCount : 1861
    Метод сжатия : Без потерь
    Размер потока : 149 Кбайт (0%)
    Default : Да
    Forced : Нет
    TV-Спешлы
    Edogawa Conan Shissou Jiken: Shijou Saiaku no Futsukakan | The Disappearance of Conan Edogawa: The Worst Two Days in History | Исчезновение Эдогавы Конана. Худшие два дня в истории
    Ссылки: World-Art
    Oписание фильма:
    Дата выпуска: 26 декабря 2014
    Продолжительность фильма: 1 ч. 31 мин.
    Видео: AVC/H.264, 1280x720, 23.97fps, ~1410Kbps
    Аудио: AAC, 48000Hz, stereo, 192kbps
    Субтитpы: ShinkaDan
    Рекомендуется смотреть после: эпизода 0762

    Скриншоты для ознакомления



    Полное имя : D: DownloadsДетектив КонанФильмы и спешлыСпешл S5 (после 0762) Исчезновение Эдогавы Конана 2014 720p (субтитры).mkv
    Формат : Matroska
    Версия формата : Version 4/Version 2
    Размер файла : 1, 03 Гбайт
    Продолжительность : 1 ч. 31 м.
    Общий поток : 1605 Кбит/сек
    Дата кодирования : UTC 2017-08-28 16: 05: 37
    Программа кодирования : mkvmerge v12.0.0 (\'Trust/Lust\') 64bit
    Библиотека кодирования : libebml v1.3.4 + libmatroska v1.4.5
    Видео
    Идентификатор : 2
    Формат : AVC
    Формат/Информация : Advanced Video Codec
    Профиль формата : Main@L4.1
    Параметр CABAC формата : Да
    Параметр RefFrames формата : 4 кадра
    Идентификатор кодека : V_MPEG4/ISO/AVC
    Продолжительность : 1 ч. 31 м.
    Битрейт : 1410 Кбит/сек
    Ширина : 1280 пикселей
    Высота : 720 пикселей
    Соотношение сторон : 16: 9
    Режим частоты кадров : Постоянный
    Частота кадров : 23, 976 (24000/1001) кадра/сек
    Цветовое пространство : YUV
    Субдискретизация насыщенности : 4: 2: 0
    Битовая глубина : 8 бит
    Тип развёртки : Прогрессивная
    Бит/(Пиксели*Кадры) : 0.064
    Размер потока : 924 Мбайт (88%)
    Библиотека кодирования : x264 core 144 r2525kMod 40bb568
    Настройки программы : cabac=1/ref=3/deblock=1: 0: 0/analyse=0x1: 0x111/me=hex/subme=7/psy=1/fade_compensate=0.00/psy_rd=1.00: 0.00/mixed_ref=1/me_range=16/chroma_me=1/trellis=1/8x8dct=0/cqm=0/deadzone=21, 11/fast_pskip=0/chroma_qp_offset=-2/threads=12/lookahead_threads=2/sliced_threads=0/nr=0/decimate=0/interlaced=0/bluray_compat=0/constrained_intra=0/fgo=0/bframes=3/b_pyramid=2/b_adapt=1/b_bias=0/direct=1/weightb=1/open_gop=0/weightp=2/keyint=240/keyint_min=1/scenecut=40/intra_refresh=0/rc_lookahead=40/rc=crf/mbtree=1/crf=20.0000/qcomp=0.60/qpmin=10/qpmax=26/qpstep=8/ip_ratio=1.40/aq=1: 1.00
    Default : Да
    Forced : Нет
    Цветовой диапазон : Limited
    Основные цвета : BT.709
    Характеристики трансфера : BT.709
    Коэффициенты матрицы : BT.709
    Аудио
    Идентификатор : 3
    Формат : AAC
    Формат/Информация : Advanced Audio Codec
    Профиль формата : LC
    Идентификатор кодека : A_AAC
    Продолжительность : 1 ч. 31 м.
    Битрейт : 192 Кбит/сек
    Каналы : 2 канала
    Расположение каналов : Front: L R
    Частота : 48, 0 КГц
    Частота кадров : 46, 875 кадров/сек (1024 SPF)
    Метод сжатия : С потерями
    Размер потока : 126 Мбайт (12%)
    Язык : Japanese
    Default : Да
    Forced : Нет
    Текст
    Идентификатор : 1
    Формат : ASS
    Идентификатор кодека : S_TEXT/ASS
    Идентификатор кодека/Информация : Advanced Sub Station Alpha
    Продолжительность : 1 ч. 31 м.
    Битрейт : 179 бит/сек
    ElementCount : 1393
    Метод сжатия : Без потерь
    Размер потока : 120 Кбайт (0%)
    Default : Да
    Forced : Нет
    Meitantei Conan: Episode One - Chiisaku Natta Meitantei | Episode One: The Great Detective Turned Small | Детектив Конан. Эпизод первый. Уменьшившийся великий детектив.
    Ссылки: World-Art
    Oписание фильма:
    Дата выпуска: 9 декабря 2016
    Продолжительность фильма: 1 ч. 31 мин.
    Видео: AVC/H.264, 1280x720, 23.97fps, ~2644Kbps
    Аудио: AAC, 48000Hz, stereo, 202kbps
    Субтитpы: 1) RuMagician kolpakchi 2)ShinkaDan модифицированные под TV-RIP от NTV
    Рекомендуется смотреть после: эпизода 0841 (теоретически, можно и после 704)

    Скриншоты для ознакомления




    Полное имя : D: DownloadsДетектив КонанФильмы и спешлыСпешл S6 (после 0841) Уменьшившийся великий детектив 2016 720p (субтитры).mkv
    Формат : Matroska
    Версия формата : Version 4/Version 2
    Размер файла : 1, 82 Гбайт
    Продолжительность : 1 ч. 31 м.
    Общий поток : 2853 Кбит/сек
    Дата кодирования : UTC 2017-08-28 15: 53: 57
    Программа кодирования : mkvmerge v12.0.0 (\'Trust/Lust\') 64bit
    Библиотека кодирования : libebml v1.3.4 + libmatroska v1.4.5
    Attachments : BOOKOSBI_0.TTF/BRLNSR_0.TTF/gvozdi_0.ttf/v_CCBellyLaugh (Regular)_0.ttf
    Видео
    Идентификатор : 2
    Формат : AVC
    Формат/Информация : Advanced Video Codec
    Профиль формата : High10@L4.1
    Параметр CABAC формата : Да
    Параметр RefFrames формата : 16 кадров
    Идентификатор кодека : V_MPEG4/ISO/AVC
    Продолжительность : 1 ч. 31 м.
    Битрейт : 2644 Кбит/сек
    Ширина : 1280 пикселей
    Высота : 720 пикселей
    Соотношение сторон : 16: 9
    Режим частоты кадров : Постоянный
    Частота кадров : 23, 976 (24000/1001) кадра/сек
    Цветовое пространство : YUV
    Субдискретизация насыщенности : 4: 2: 0
    Битовая глубина : 10 бит
    Тип развёртки : Прогрессивная
    Бит/(Пиксели*Кадры) : 0.120
    Размер потока : 1, 69 Гбайт (93%)
    Библиотека кодирования : x264 core 148 r2744+55 950084e t_mod_Custom 10-bit@all X86_64
    Настройки программы : cabac=1/ref=16/deblock=1: 0: 0/analyse=0x3: 0x113/me=hex/subme=10/psy=1/fade_compensate=0.00/psy_rd=1.00: 0.00/mixed_ref=1/me_range=16/chroma_me=1/trellis=2/8x8dct=1/cqm=0/deadzone=21, 11/fast_pskip=1/chroma_qp_offset=-2/threads=12/lookahead_threads=1/sliced_threads=0/nr=0/decimate=1/interlaced=0/bluray_compat=0/constrained_intra=0/fgo=0/bframes=8/b_pyramid=2/b_adapt=1/b_bias=0/direct=3/weightb=1/open_gop=0/weightp=2/keyint=250/keyint_min=23/scenecut=40/intra_refresh=0/rc_lookahead=50/rc=crf/mbtree=1/crf=17.0000/qcomp=0.60/qpmin=0: 0: 0/qpmax=81: 81: 81/qpstep=4/ip_ratio=1.40/aq=1: 1.00/aq-sensitivity=10.00/aq-factor=1.00: 1.00: 1.00/aq2=0/aq3=0
    Default : Да
    Forced : Нет
    Цветовой диапазон : Limited
    Основные цвета : BT.709
    Характеристики трансфера : BT.709
    Коэффициенты матрицы : BT.709
    Аудио
    Идентификатор : 3
    Формат : AAC
    Формат/Информация : Advanced Audio Codec
    Профиль формата : LC
    Идентификатор кодека : A_AAC
    Продолжительность : 1 ч. 31 м.
    Битрейт : 202 Кбит/сек
    Каналы : 2 канала
    Расположение каналов : Front: L R
    Частота : 48, 0 КГц
    Частота кадров : 46, 875 кадров/сек (1024 SPF)
    Метод сжатия : С потерями
    Размер потока : 132 Мбайт (7%)
    Default : Да
    Forced : Нет
    Текст #1
    Идентификатор : 1
    Формат : ASS
    Идентификатор кодека : S_TEXT/ASS
    Идентификатор кодека/Информация : Advanced Sub Station Alpha
    Продолжительность : 1 ч. 30 м.
    Битрейт : 3590 бит/сек
    ElementCount : 11717
    Метод сжатия : Без потерь
    Размер потока : 2, 33 Мбайт (0%)
    Заголовок : RuMagician
    Язык : Russian
    Default : Да
    Forced : Нет
    Текст #2
    Идентификатор : 4
    Формат : ASS
    Идентификатор кодека : S_TEXT/ASS
    Идентификатор кодека/Информация : Advanced Sub Station Alpha
    Продолжительность : 1 ч. 31 м.
    Битрейт : 347 бит/сек
    ElementCount : 1592
    Метод сжатия : Без потерь
    Размер потока : 232 Кбайт (0%)
    Заголовок : ShinkaDan
    Язык : Russian
    Default : Нет
    Forced : Нет
    Время раздачи: c 10.00 до 22.00 (до появления первых 3-5 скачавших)

    Онлайн видео Meitantei Conan



    Meitantei Conan | Detective Conan | Детектив Конан. Фильмы и Спешлы с субтитрами. [1997-2016, Movie 2 из 22, Special 2 из 6] BDRip, TVRip 720p 10-bit raw
    загрузка...
    Рейтинг →
     (голосов: 1, оценка 3/5, голосовать можно 1 раз )

    Другие торренты по теме:

  • Meitantei Conan / Detective Conan / Детектив Конан [1996, TV, 286-380, 401-402 из >700] DVDRip raw
  • Meitantei Conan / Detective Conan / Детектив Конан [1996, TV, 1-452 из >800] DVDRip 624p raw скачать через торрент бесплатно
  • Meitantei Conan / Detective Conan / Детектив Конан [1996, TV, 453-504 из >800] DVDRip 576p raw
  • Meitantei Conan / Detective Conan / Детектив Конан [1996, TV, 453-539 из >800] DVDRip 576p raw
  • Meitantei Conan | Detective Conan | Детектив Конан [1996, TV, 001-275 из >869] DVDRip 480p rus
  • Meitantei Conan | Detective Conan | Детектив Конан. Полнометражные фильмы. [1997-2004, Movie, 8 из 21] BDRip 720p 10-bit rus
  • Meitantei Conan | Detective Conan OVA | Детектив Конан OVA [2000-2012, OVA, 13 из 18] DVDRip 480p rus
  • Meitantei Conan | Detective Conan | Детектив Конан [1996, TV, 810-849 из >870] WEBRip 720p raw


    • Комментарии (0):

      Информация

      Информация

        Посетители, находящиеся в группе Гости, не могут оставлять комментарии в данной новости.

        ↓ Меню




        ↓ Опрос

        Вы добавили сайт в закладки?
        Да
        Нет


        Top 10 за месяц (Мультфильмы)