.
Авторизация | Регистрация
Хочешь лучшие торренты? Добавь свой email!
Добавить

Торрент скачать бесплатно

» » Тайна пиратских сокровищ / Piratskattens hemlighet (2014) HDTV [H.264 / 1080i-LQ] (сезон 1, серии 1-20 из 24) торрент скачать бесплатно




    Тайна пиратских сокровищ / Piratskattens hemlighet (2014) HDTV [H.264 / 1080i-LQ] (сезон 1, серии 1-20 из 24) торрент скачать бесплатно

    Опубликовал: Админ | Дата: 30-08-2017, 05:00 | Просмотров: 0

    Производство: Швеция
    Жанр: Семейный
    Производство: Швеция, Kinorama, Sveriges Television (SVT), Tre Vänner Produktion AB

    Актеры
    Александра Бреши, Бастер Иситт, Лиа Стоянов, Аманда Оомс, Анагил де Мело Насименту, Мирья Турестедт, Питер Эггерс, Михалис Куцогианнакис, Гёран Энгман, Кристоффер Нурденрут

    Описание

    Сэм и Минна вместе со своей мамой Евой собираются праздновать Рождество с родственниками — тётей Анной и её дочерью Бьянкой. Семейство отправляется на побережье Орхидей. Во время прогулки дети видят обломки старого корабля, выброшенные на берег. Старый Иво рассказывает Сэму, Минне и Бьянке, что в давние времена недалеко от берега здесь затонул корабль пиратов, на борту которого были сокровища…

    Возраст: 12+ (зрителям, достигшим 12 лет)
    Продолжительность: ~00: 12: 00 серия
    Качество видео: HDTV
    Перевод: Многоголосый закадровый, профессиональный (студия Игмар)
    Субтитры: отсутствуют
    Видео: AVC/H.264, 1920x1080, ~7437 Kbps
    Аудио: MP2, 2 ch, 192 Kbps

    Общее
    Идентификатор : 1 (0x1)
    Полное имя : D: Тайна пиратских сокровищ (HDTV 1080i)Тайна пиратских сокровищ (01 серия).ts
    Формат : MPEG-TS
    Размер файла : 724 Мбайт
    Продолжительность : 12 м.
    Режим общего битрейта : Переменный
    Общий поток : 8027 Кбит/сек
    Максимальный общий битрейт : 35, 5 Мбит/сек
    Видео
    Идентификатор : 4113 (0x1011)
    Идентификатор меню : 1 (0x1)
    Формат : AVC
    Формат/Информация : Advanced Video Codec
    Профиль формата : Main@L4.0
    Параметр CABAC формата : Да
    Параметр ReFrames формата : 4 кадра
    Параметр GOP формата : M=1, N=32
    Идентификатор кодека : 27
    Продолжительность : 12 м.
    Вид битрейта : Переменный
    Битрейт : 7437 Кбит/сек
    Максимальный битрейт : 40, 0 Мбит/сек
    Ширина : 1920 пикселей
    Высота : 1080 пикселей
    Соотношение сторон : 16: 9
    Частота кадров : 25, 000 кадров/сек
    Цветовое пространство : YUV
    Субдискретизация насыщенности : 4: 2: 0
    Битовая глубина : 8 бит
    Тип развёртки : Чересстрочная
    Порядок развёртки : Верхнее поле первое
    Бит/(Пиксели*Кадры) : 0.143
    Размер потока : 670 Мбайт (93%)
    Основные цвета : BT.709
    Характеристики трансфера : BT.709
    Коэффициенты матрицы : BT.709
    colour_range : Limited
    Аудио
    Идентификатор : 4352 (0x1100)
    Идентификатор меню : 1 (0x1)
    Формат : MPEG Audio
    Версия формата : Version 1
    Профиль формата : Layer 2
    Идентификатор кодека : 4
    Продолжительность : 12 м.
    Вид битрейта : Постоянный
    Битрейт : 192 Кбит/сек
    Каналы : 2 канала
    Частота : 48, 0 КГц
    Метод сжатия : С потерями
    Задержка видео : 78 мс.
    Размер потока : 17, 3 Мбайт (2%)
    Язык : Russian

    Скриншоты для ознакомления



    Все одноименные релизы в Клубе
    Время раздачи: с 19: 00 до 00: 00

    Онлайн видео Тайна пиратских сокровищ



    Тайна пиратских сокровищ/Piratskattens hemlighet (2014) HDTV [H.264/1080i-LQ] (сезон 1, серии 1-20 из 24)
    загрузка...
    Рейтинг →
     (голосов: 1, оценка 5/5, голосовать можно 1 раз )

    Другие торренты по теме:

  • Тайна пиратских сокровищ / Piratskattens hemlighet (2014) WEB-DL [H.264 / 720p] (сезон 1, серии 1-24 из 24)
  • Тайна пиратских сокровищ / Piratskattens hemlighet (2014) HDTVRip (сезон 1, серии 1-20 из 24)


    • Комментарии (0):

      Информация

      Информация

        Посетители, находящиеся в группе Гости, не могут оставлять комментарии в данной новости.

        ↓ Меню




        ↓ Опрос

        Вы добавили сайт в закладки?
        Да
        Нет


        Top 10 за месяц (Мультфильмы)