.
Авторизация | Регистрация
Хочешь лучшие торренты? Добавь свой email!
Добавить

Торрент скачать бесплатно

» » Тайна пиратских сокровищ / Piratskattens hemlighet (2014) HDTVRip (сезон 1, серии 1-20 из 24) торрент скачать бесплатно




    Тайна пиратских сокровищ / Piratskattens hemlighet (2014) HDTVRip (сезон 1, серии 1-20 из 24) торрент скачать бесплатно

    Опубликовал: Админ | Дата: 30-08-2017, 05:00 | Просмотров: 0

    Производство: Швеция, Kinorama, Sveriges Television (SVT), Tre Vänner Produktion AB
    Жанр: Семейный
    Режиссер: Анна Закриссона

    Актеры
    Александра Бреши, Бастер Иситт, Лиа Стоянов, Аманда Оомс, Анагил де Мело Насименту, Мирья Турестедт, Питер Эггерс, Михалис Куцогианнакис, Гёран Энгман, Кристоффер Нурденрут

    Описание

    Сэм и Минна вместе со своей мамой Евой собираются праздновать Рождество с родственниками — тётей Анной и её дочерью Бьянкой. Семейство отправляется на побережье Орхидей. Во время прогулки дети видят обломки старого корабля, выброшенные на берег. Прикольно все это наверно придумал Халк потратив достаточно времени. Старый Иво рассказывает Сэму, Минне и Бьянке, что в давние времена недалеко от берега здесь затонул корабль пиратов, на борту которого были сокровища…

    Возраст: 12+ (зрителям, достигшим 12 лет)
    Продолжительность: ~00: 12: 00 серия
    Качество видео: HDTVRip
    Перевод: Многоголосый закадровый, профессиональный (студия Игмар)
    Субтитры: отсутствуют
    Видео: Xvid, 720x400, ~1885 Kbps
    Аудио: AC3, 2 ch, 192 Kbps

    Общее
    Полное имя : D: Тайна пиратских сокровищ (HDTVRIp)Тайна пиратских сокровищ (01 серия).avi
    Формат : AVI
    Формат/Информация : Audio Video Interleave
    Размер файла : 188 Мбайт
    Продолжительность : 12 м.
    Общий поток : 2086 Кбит/сек
    Программа кодирования : VirtualDubMod 1.5.10.3 |www.virtualdub-fr.org|| (build 2550/release)
    Библиотека кодирования : VirtualDubMod build 2550/release
    Видео
    Идентификатор : 0
    Формат : MPEG-4 Visual
    Профиль формата : Advanced Simple@L5
    Параметр BVOP формата : 1
    Параметр QPel формата : Нет
    Параметр GMC формата : Без точки перехода
    Параметр матрицы формата : Default (MPEG)
    Идентификатор кодека : XVID
    Идентификатор кодека/Подсказка : XviD
    Продолжительность : 12 м.
    Битрейт : 1885 Кбит/сек
    Ширина : 720 пикселей
    Высота : 400 пикселей
    Соотношение сторон : 16: 9
    Частота кадров : 25, 000 кадров/сек
    Цветовое пространство : YUV
    Субдискретизация насыщенности : 4: 2: 0
    Битовая глубина : 8 бит
    Тип развёртки : Прогрессивная
    Метод сжатия : С потерями
    Бит/(Пиксели*Кадры) : 0.262
    Размер потока : 170 Мбайт (90%)
    Библиотека кодирования : XviD 1.2.1 (UTC 2008-12-04)
    Аудио
    Идентификатор : 1
    Формат : AC-3
    Формат/Информация : Audio Coding 3
    Расширение режима : CM (complete main)
    Параметр Endianness формата : Big
    Идентификатор кодека : 2000
    Продолжительность : 12 м.
    Вид битрейта : Постоянный
    Битрейт : 192 Кбит/сек
    Каналы : 2 канала
    Расположение каналов : Front: L R
    Частота : 48, 0 КГц
    Битовая глубина : 16 бит
    Метод сжатия : С потерями
    Размер потока : 17, 3 Мбайт (9%)
    Выравнивание : Разделение по промежуткам
    Продолжительность промежутка : 40 мс. (1, 00 видеокадр)
    Время предзагрузки промежутка : 500 мс.

    Скриншоты для ознакомления



    Все одноименные релизы в Клубе
    Время раздачи: с 19: 00 до 00: 00

    Онлайн видео Тайна пиратских сокровищ



    Тайна пиратских сокровищ/Piratskattens hemlighet (2014) HDTVRip (сезон 1, серии 1-20 из 24)
    загрузка...
    Рейтинг →
     (голосов: 1, оценка 4/5, голосовать можно 1 раз )

    Другие торренты по теме:

  • Тайна пиратских сокровищ / Piratskattens hemlighet (2014) WEB-DL [H.264 / 720p] (сезон 1, серии 1-24 из 24)
  • Тайна пиратских сокровищ / Piratskattens hemlighet (2014) HDTV [H.264 / 1080i-LQ] (сезон 1, серии 1-20 из 24)


    • Комментарии (0):

      Информация

      Информация

        Посетители, находящиеся в группе Гости, не могут оставлять комментарии в данной новости.

        ↓ Меню




        ↓ Опрос

        Вы добавили сайт в закладки?
        Да
        Нет


        Top 10 за месяц (Мультфильмы)