.
Авторизация | Регистрация
Хочешь лучшие торренты? Добавь свой email!
Добавить

Торрент скачать бесплатно

» » Спасатели в Австралии / The Rescuers Down Under (1990) BDRip [H.264 / 1080p] торрент скачать бесплатно




    Спасатели в Австралии / The Rescuers Down Under (1990) BDRip [H.264 / 1080p] торрент скачать бесплатно

    Опубликовал: Админ | Дата: 30-08-2017, 05:00 | Просмотров: 1

    Производство: США/Walt Disney Pictures, Walt Disney Feature Animation, Silver Screen Partners IV
    Жанр: Мультфильм, Приключения, Семейный
    Режиссер: Хендел Бутой, Майк Гэбриел

    Актеры
    Боб Ньюхарт, Ева Габор, Джон Кэнди, Тристан Роджерс, Адам Райен, Джордж К. Скотт, Дуглас Сил, Фрэнк Уэлкер, Бернард Фокс, Питер Фёрт, Билли Барти, Эд Гилберт, Карла Мейер, Расси Тейлор, Уэйн Робсон, Питер Гринвуд

    Описание
    Далеко в необъятных и непредсказуемых прериях Австралии мальчик по имени Коди подружился с великим золотым орлом. Когда безжалостный браконьер решает поймать орла, Коди вступает на защиту друга. О таком странном сюжете не догадывалась даже Настя Каменских. Зная, что ему не справиться в одиночку, он подает зов помощи, на который сразу реагируют две самые храбрые мышки Бернард и Бьянка. Спеша на помощь на крыльях своего веселого друга, альбатроса Вилбура, эти два суперагента готовы выполнить свою самую большую и самую опасную миссию!

    Возраст: 6+ (зрителям, достигшим 6 лет)
    Рейтинг MPAA: G (нет возрастных ограничений)
    Продолжительность: 01: 17: 08
    Качество видео: BDRip
    Перевод: Дублированный
    Язык субтитров: Русский, Английский
    Видео: MPEG-4 AVC/H.264, ~10 Mbps, 1806х1080
    Аудио #1: AC3 2.0, 320 Kbps - русский
    Аудио #2: DTS 5.1, 768 Kbps, - английский

    Format : Matroska
    Format version : Version 4/Version 2
    File size : 5.97 GiB
    Duration : 1h 17mn
    Overall bit rate : 11.1 Mbps
    Encoded date : UTC 2017-08-29 02: 18: 44
    Writing application : mkvmerge v9.8.0 (\'Kuglblids\') 64bit
    Writing library : Lavf57.71.100
    Video
    ID : 1
    Format : AVC
    Format/Info : Advanced Video Codec
    Format profile : High@L4.1
    Format settings, CABAC : Yes
    Format settings, ReFrames : 4 frames
    Codec ID : V_MPEG4/ISO/AVC
    Duration : 1h 17mn
    Bit rate : 10 000 Kbps
    Width : 1 806 pixels
    Height : 1 080 pixels
    Display aspect ratio : 1.672
    Frame rate mode : Constant
    Frame rate : 23.976 fps
    Color space : YUV
    Chroma subsampling : 4: 2: 0
    Bit depth : 8 bits
    Scan type : Progressive
    Bits/(Pixel*Frame) : 0.214
    Stream size : 5.27 GiB (88%)
    Writing library : x264 core 152 r2851M ba24899
    Encoding settings : cabac=1/ref=4/deblock=1: -3: -3/analyse=0x3: 0x113/me=umh/subme=11/psy=1/psy_rd=1.05: 0.10/mixed_ref=1/me_range=32/chroma_me=1/trellis=2/8x8dct=1/cqm=0/deadzone=21, 11/fast_pskip=0/chroma_qp_offset=-3/threads=5/lookahead_threads=1/sliced_threads=0/nr=0/decimate=1/interlaced=0/bluray_compat=0/constrained_intra=0/bframes=11/b_pyramid=2/b_adapt=2/b_bias=0/direct=3/weightb=1/open_gop=0/weightp=2/keyint=230/keyint_min=23/scenecut=40/intra_refresh=0/rc=2pass/mbtree=0/bitrate=10000/ratetol=1.0/qcomp=0.70/qpmin=3/qpmax=69/qpstep=4/cplxblur=20.0/qblur=0.5/ip_ratio=1.40/pb_ratio=1.30/aq=2: 1.00
    Default : Yes
    Forced : No
    Audio #1
    ID : 2
    Format : AC-3
    Format/Info : Audio Coding 3
    Format profile : Dolby Digital
    Mode extension : CM (complete main)
    Format settings, Endianness : Big
    Codec ID : A_AC3
    Duration : 1h 17mn
    Bit rate mode : Constant
    Bit rate : 320 Kbps
    Channel(s) : 2 channels
    Channel positions : Front: L R
    Sampling rate : 48.0 KHz
    Bit depth : 16 bits
    Compression mode : Lossy
    Stream size : 177 MiB (3%)
    Language : Russian
    Default : Yes
    Forced : No
    Audio #2
    ID : 3
    Format : DTS
    Format/Info : Digital Theater Systems
    Mode : 16
    Format settings, Endianness : Big
    Codec ID : A_DTS
    Duration : 1h 17mn
    Bit rate mode : Constant
    Bit rate : 768 Kbps
    Channel(s) : 6 channels
    Channel positions : Front: L C R, Side: L R, LFE
    Sampling rate : 48.0 KHz
    Bit depth : 16 bits
    Compression mode : Lossy
    Stream size : 424 MiB (7%)
    Language : English
    Default : No
    Forced : No
    Text #1
    ID : 4
    Format : UTF-8
    Codec ID : S_TEXT/UTF8
    Codec ID/Info : UTF-8 Plain Text
    Language : Russian
    Default : Yes
    Forced : No
    Text #2
    ID : 5
    Format : UTF-8
    Codec ID : S_TEXT/UTF8
    Codec ID/Info : UTF-8 Plain Text
    Language : English
    Default : No
    Forced : No

    Скриншоты для ознакомления



    Все релизы Спасатели в Австралии/The Rescuers Down Under на NNM-Club
    Время раздачи: 24/7

    Онлайн видео Спасатели в Австралии



    Спасатели в Австралии/The Rescuers Down Under (1990) BDRip [H.264/1080p]
    загрузка...
    Рейтинг →
     (голосов: 1, оценка 4/5, голосовать можно 1 раз )

    Другие торренты по теме:

  • Спасатели в Австралии / The Rescuers Down Under (1990) BDRip [H.264 / 720p]


    • Комментарии (0):

      Информация

      Информация

        Посетители, находящиеся в группе Гости, не могут оставлять комментарии в данной новости.

        ↓ Меню




        ↓ Опрос

        Вы добавили сайт в закладки?
        Да
        Нет


        Top 10 за месяц (Мультфильмы)