.
Авторизация | Регистрация
Хочешь лучшие торренты? Добавь свой email!
Добавить

Торрент скачать бесплатно

» » Деревяшки (2017) WEB-DLRip [H.264 / 720p-LQ] (серии 1-5 из 26) [Обновляемая] торрент скачать бесплатно




    Деревяшки (2017) WEB-DLRip [H.264 / 720p-LQ] (серии 1-5 из 26) [Обновляемая] торрент скачать бесплатно

    Опубликовал: Админ | Дата: 30-08-2017, 05:00 | Просмотров: 0

    Год выпуска: 2017
    Жанр: Анимационный сериал для детей дошкольного возраста.
    Производство: Россия (Анимационная Студия Паровоз)
    Режиссер: Наталья Наумова
    Главные персонажи: Кошечка Мяу, Собачка Гав-Гав, Поросенок Хрю, Лошадка Иго-Го и Слон Ду-Ду.

    Описание

    Игрушки живут в маленьком деревянном городке – это прообраз игровой комнаты ребенка. Самое интересное в это истории, что об этом Лукашенко ничего не знал. Каждая из игрушек обладает своим набором характерных черт. Домики героев также отражают их характеры. Игрушки вместе со зрителями попадают в разные приключения и под сопровождение голоса невидимого Автора преодолевают их в игровой форме.
    Деревяшки - музыкальный сериал, который сопровождается песнями и танцами. Одни песни представляют героев, открывают и закрывают эпизод в каждой серии. Другие связаны с событиями в серии и встречаются только в одном эпизоде.
    Каждый эпизод содержит образовательный элемент в игровой форме. Взрывоопасный вопрос, сказал кто то из толпы, к чему не понятно. Игрушки вместе со зрителями узнают цвета, формы, предметы, находят решения, учатся дружбе и взаимовыручке, познают мир. Позитивные и добрые серии содержат элементы легкого юмора.
    Возраст: 0+ (для любой зрительской аудитории)
    Рейтинг MPAA: G (нет возрастных ограничений)
    Релиз от: Natasha77
    Продолжительность: 00: 05: 30 серия
    Качество видео: WEB-DLRip
    Перевод: Не требуется (Русский)
    Субтитры: Отсутствуют
    Видео: AVC/H.264, 1280x720, ~1000 kbps
    Аудио: Русский: AС3, 2 ch, 192 kbps
    Код: выделить все
    General
    Unique ID : 140052575616282154276907891885365514042 (0x695D251944617FF262F729D3C7BBCF3A)
    Complete name : C:Деревяшки2_Дождь.mkv
    Format : Matroska
    Format version : Version 4/Version 2
    File size : 42.0 MiB
    Duration : 5 min 30 s
    Overall bit rate : 1 069 kb/s
    Writing application : Lavf57.25.100
    Writing library : Lavf57.25.100
    Video
    ID : 1
    Format : AVC
    Format/Info : Advanced Video Codec
    Format profile : Baseline@L3
    Format settings, CABAC : No
    Format settings, RefFrames : 2 frames
    Codec ID : V_MPEG4/ISO/AVC
    Duration : 5 min 30 s
    Bit rate : 856 kb/s
    Width : 1 280 pixels
    Height : 720 pixels
    Display aspect ratio : 16:9
    Frame rate mode : Constant
    Frame rate : 25.000 FPS
    Color space : YUV
    Chroma subsampling : 4:2:0
    Bit depth : 8 bits
    Scan type : Progressive
    Bits/(Pixel*Frame) : 0.037
    Stream size : 33.7 MiB (80%)
    Writing library : x264 core 144 r2533 c8a773e
    Encoding settings : cabac=0/ref=2/deblock=1:1:1/analyse=0x1:0x131/me=umh/subme=10/psy=1/psy_rd=0.40:0.00/mixed_ref=1/me_range=24/chroma_me=1/trellis=2/8x8dct=0/cqm=0/deadzone=21, 11/fast_pskip=1/chroma_qp_offset=-2/threads=24/lookahead_threads=2/sliced_threads=0/nr=0/decimate=1/interlaced=0/bluray_compat=0/constrained_intra=0/bframes=0/weightp=0/keyint=200/keyint_min=20/scenecut=40/intra_refresh=0/rc_lookahead=60/rc=crf/mbtree=1/crf=26.0/qcomp=0.60/qpmin=0/qpmax=69/qpstep=4/ip_ratio=1.40/aq=1:0.60
    Default : Yes
    Forced : No
    DURATION : 00:05:30.000000000
    Audio
    ID : 2
    Format : AC-3
    Format/Info : Audio Coding 3
    Format settings, Endianness : Big
    Codec ID : A_AC3
    Duration : 5 min 30 s
    Bit rate mode : Constant
    Bit rate : 192 kb/s
    Channel(s) : 2 channels
    Channel positions : Front: L R
    Sampling rate : 44.1 kHz
    Frame rate : 28.711 FPS (1536 SPF)
    Bit depth : 16 bits
    Compression mode : Lossy
    Stream size : 7.55 MiB (18%)
    Service kind : Complete Main
    Default : Yes
    Forced : No
    DURATION : 00:05:30.013000000
    01. Домик
    02. Дождь
    03. Лужа
    04. О таком странном сюжете не догадывалась даже Вера Брежнева. Горка
    05. Арбуз

    Скриншоты для ознакомления

    Аркадий Паровозов
    Бумажки
    Волшебный фонарь
    Герои Энвелла
    Деревяшки
    Лео и Тиг
    Ми-ми-мишки
    Сказочный патруль
    СОБЕЗ
    Четверо в Кубе

    28.08.2017. Добавлены 1-5 серии
    Деревяшки на NoNaMe Club

    Онлайн видео Деревяшки (2017) WEB-DLRip [H.264



    Деревяшки (2017) WEB-DLRip [H.264/720p-LQ] (серии 1-5 из 26) [Обновляемая]
    загрузка...
    Рейтинг →
     (голосов: 1, оценка 5/5, голосовать можно 1 раз )

    Другие торренты по теме:



      Комментарии (0):

      Информация

      Информация

        Посетители, находящиеся в группе Гости, не могут оставлять комментарии в данной новости.

        ↓ Меню




        ↓ Опрос

        Вы добавили сайт в закладки?
        Да
        Нет


        Top 10 за месяц (Мультфильмы)