.
Авторизация | Регистрация
Хочешь лучшие торренты? Добавь свой email!
Добавить

Торрент скачать бесплатно

» » Тайна пиратских сокровищ / Piratskattens hemlighet (2014) WEB-DL [H.264 / 720p] (сезон 1, серии 1-24 из 24) торрент скачать бесплатно




    Тайна пиратских сокровищ / Piratskattens hemlighet (2014) WEB-DL [H.264 / 720p] (сезон 1, серии 1-24 из 24) торрент скачать бесплатно

    Опубликовал: Админ | Дата: 30-08-2017, 05:00 | Просмотров: 0

    Производство: Швеция, Kinorama, Sveriges Television (SVT), Tre Vänner Produktion AB
    Жанр: Семейный
    Режиссер: Анна Закриссона

    Актеры
    Александра Бреши, Бастер Иситт, Лиа Стоянов, Аманда Оомс, Анагил де Мело Насименту, Мирья Турестедт, Питер Эггерс, Михалис Куцогианнакис, Гёран Энгман, Кристоффер Нурденрут

    Описание

    Сэм и Минна вместе со своей мамой Евой собираются праздновать Рождество с родственниками — тётей Анной и её дочерью Бьянкой. Семейство отправляется на побережье Орхидей. Во время прогулки дети видят обломки старого корабля, выброшенные на берег. Старый Иво рассказывает Сэму, Минне и Бьянке, что в давние времена недалеко от берега здесь затонул корабль пиратов, на борту которого были сокровища…

    Возраст: 12+ (зрителям, достигшим 12 лет)
    Продолжительность: ~00: 12: 00 серия
    Качество видео: WEB-DL, H.264/720p
    Перевод: Многоголосый закадровый, профессиональный (Игмар)
    Субтитры: отсутствуют
    Видео: AVC, 1280x720, ~2 700 kb/s
    Аудио #1: AC3, 2 ch, 192 Kbps, русский
    Аудио #2: AC3, 2 ch, 192 Kbps, шведский

    General
    Unique ID : 223685452702003228125018186170497318274 (0xA848404B409C5465B278DE44DDA53D82)
    Complete name : Piratskattens.Hemlighet.2014.s01e02.mkv
    Format : Matroska
    Format version : Version 4/Version 2
    File size : 275 MiB
    Duration : 12 min 42 s
    Overall bit rate mode : Constant
    Overall bit rate : 3 024 kb/s
    Encoded date : UTC 2017-03-14 10: 45: 44
    Writing application : mkvmerge v7.9.0 (\'Birds\') 64bit
    Writing library : libebml v1.3.1 + libmatroska v1.4.2
    Video
    ID : 1
    Format : AVC
    Format/Info : Advanced Video Codec
    Format profile : High@L3.1
    Format settings, CABAC : Yes
    Format settings, RefFrames : 4 frames
    Codec ID : V_MPEG4/ISO/AVC
    Duration : 12 min 42 s
    Bit rate mode : Constant
    Bit rate : 2 700 kb/s
    Width : 1 280 pixels
    Height : 720 pixels
    Display aspect ratio : 16: 9
    Frame rate mode : Constant
    Frame rate : 25.000 FPS
    Color space : YUV
    Chroma subsampling : 4: 2: 0
    Bit depth : 8 bits
    Scan type : Progressive
    Bits/(Pixel*Frame) : 0.117
    Stream size : 234 MiB (85%)
    Default : Yes
    Forced : No
    Audio #1
    ID : 2
    Format : AC-3
    Format/Info : Audio Coding 3
    Format settings, Endianness : Big
    Codec ID : A_AC3
    Duration : 12 min 42 s
    Bit rate mode : Constant
    Bit rate : 192 kb/s
    Channel(s) : 2 channels
    Channel positions : Front: L R
    Sampling rate : 48.0 kHz
    Frame rate : 31.250 FPS (1536 SPF)
    Bit depth : 16 bits
    Compression mode : Lossy
    Stream size : 17.4 MiB (6%)
    Language : Russian
    Service kind : Complete Main
    Default : Yes
    Forced : No
    Audio #2
    ID : 3
    Format : AC-3
    Format/Info : Audio Coding 3
    Format settings, Endianness : Big
    Codec ID : A_AC3
    Duration : 12 min 42 s
    Bit rate mode : Constant
    Bit rate : 192 kb/s
    Channel(s) : 2 channels
    Channel positions : Front: L R
    Sampling rate : 48.0 kHz
    Frame rate : 31.250 FPS (1536 SPF)
    Bit depth : 16 bits
    Compression mode : Lossy
    Stream size : 17.4 MiB (6%)
    Language : Swedish
    Service kind : Complete Main
    Default : No
    Forced : No
    Примечание: последние две минуты семнадцатой и небольшой (полминуты) фрагмент в двадцатой серии без перевода.

    Скриншоты для ознакомления



    Все одноименные релизы в Клубе
    Время раздачи: 247

    Онлайн видео Тайна пиратских сокровищ



    Тайна пиратских сокровищ/Piratskattens hemlighet (2014) WEB-DL [H.264/720p] (сезон 1, серии 1-24 из 24)
    загрузка...
    Рейтинг →
     (голосов: 1, оценка 4/5, голосовать можно 1 раз )

    Другие торренты по теме:

  • Тайна пиратских сокровищ / Piratskattens hemlighet (2014) HDTVRip (сезон 1, серии 1-20 из 24)
  • Тайна пиратских сокровищ / Piratskattens hemlighet (2014) HDTV [H.264 / 1080i-LQ] (сезон 1, серии 1-20 из 24)


    • Комментарии (0):

      Информация

      Информация

        Посетители, находящиеся в группе Гости, не могут оставлять комментарии в данной новости.

        ↓ Меню




        ↓ Опрос

        Вы добавили сайт в закладки?
        Да
        Нет


        Top 10 за месяц (Мультфильмы)