.
Авторизация | Регистрация
Хочешь лучшие торренты? Добавь свой email!
Добавить

Торрент скачать бесплатно

» » Жил-был кот / Rudolf the Black Cat (2016) HDRip торрент скачать бесплатно




    Жил-был кот / Rudolf the Black Cat (2016) HDRip торрент скачать бесплатно

    Опубликовал: Админ | Дата: 29-08-2017, 05:00 | Просмотров: 0

    Производство: Япония, Канада | Bandai, Chukyo TV Broadcasting Company (CTV), D.N. Dream Partners
    Жанр: Мультфильм, Комедия, Приключения
    Режиссер: Микинори Сакакибара, Кунихико Юяма

    Описание

    История маленького чёрного котёнка с гордым именем Рудольф, жившего счастливо и спокойно ровно до тех пор, пока по роковой случайности он не оказался в неизвестном большом городе. Здесь герою придётся выживать без ласки и заботы хозяев, а ведь раньше он был твёрдо убежден, что всегда будет в полной безопасности.

    Дата мировой премьеры: 22 июня 2016
    Дата российской премьеры: 13 июля 2017, АКМ
    Продолжительность: 01: 28: 39
    Качество видео: HDRip
    Перевод: Дублированный
    Субтитры: Отсутствуют
    Реклама: Отсутствует
    Видео: XviD, 720x400 (16: 9), 23.976 fps, 2005 Kbps (0.290 bit/pixel)
    Аудио: AC-3, 48.0 KHz, 2 ch, 192 Kbps, CBR

    Complete name : Rudolf.the.Black.Cat.2016.HDRip.avi
    Format : AVI
    Format/Info : Audio Video Interleave
    File size : 1.37 GiB
    Duration : 1h 28mn
    Overall bit rate : 2 206 Kbps
    Writing application : VirtualDubMod 1.5.10.3 |www.virtualdub-fr.org|| (build 2550/release)
    Writing library : VirtualDubMod build 2550/release
    Video
    ID : 0
    Format : MPEG-4 Visual
    Format profile : Advanced Simple@L5
    Format settings, BVOP : 2
    Format settings, QPel : No
    Format settings, GMC : No warppoints
    Format settings, Matrix : Default (MPEG)
    Codec ID : XVID
    Codec ID/Hint : XviD
    Duration : 1h 28mn
    Bit rate : 2 005 Kbps
    Width : 720 pixels
    Height : 400 pixels
    Display aspect ratio : 16: 9
    Frame rate : 23.976 fps
    Color space : YUV
    Chroma subsampling : 4: 2: 0
    Bit depth : 8 bits
    Scan type : Progressive
    Compression mode : Lossy
    Bits/(Pixel*Frame) : 0.290
    Stream size : 1.24 GiB (91%)
    Writing library : XviD 1.2.1 (UTC 2008-12-04)
    Audio
    ID : 1
    Format : AC-3
    Format/Info : Audio Coding 3
    Mode extension : CM (complete main)
    Format settings, Endianness : Big
    Codec ID : 2000
    Duration : 1h 28mn
    Bit rate mode : Constant
    Bit rate : 192 Kbps
    Channel(s) : 2 channels
    Channel positions : Front: L R
    Sampling rate : 48.0 KHz
    Compression mode : Lossy
    Stream size : 122 MiB (9%)
    Alignment : Split accross interleaves
    Interleave, duration : 42 ms (1.00 video frame)
    Interleave, preload duratio : 500 ms

    Скриншоты для ознакомления



    Все одноименные релизы в Клубе
    Смотрите также другиемои раздачи
    Время раздачи: С 08: 00 до 23: 00 (до появления первых 3-5 скачавших)

    Онлайн видео Жил-был кот



    Жил-был кот/Rudolf the Black Cat (2016) HDRip
    загрузка...
    Рейтинг →
     (голосов: 1, оценка 4/5, голосовать можно 1 раз )

    Другие торренты по теме:

  • Жил-был кот / Rudolf the Black Cat (2016) BDRip [H.264 / 720p]
  • Жил-был кот / Rudolf The Black Cat (2016) HDRip [H.264]
  • Жил-был кот / Rudolf the Black Cat (2016) WEB-DL [H.264] [MP4|1280x720]
  • Жил-был кот / Rudolf the Black Cat / Rudorufu to ippai attena (2016) BDRip [H.264] [AVO]


    • Комментарии (0):

      Информация

      Информация

        Посетители, находящиеся в группе Гости, не могут оставлять комментарии в данной новости.

        ↓ Меню




        ↓ Опрос

        Вы добавили сайт в закладки?
        Да
        Нет


        Top 10 за месяц (Мультфильмы)