.
Авторизация | Регистрация
Хочешь лучшие торренты? Добавь свой email!
Добавить

Торрент скачать бесплатно

» » Жил-был кот / Rudolf the Black Cat (2016) BDRip [H.264 / 720p] торрент скачать бесплатно




    Жил-был кот / Rudolf the Black Cat (2016) BDRip [H.264 / 720p] торрент скачать бесплатно

    Опубликовал: Админ | Дата: 28-08-2017, 05:00 | Просмотров: 0

    Производство: Япония, Канада | Bandai, Chukyo TV Broadcasting Company (CTV), D.N. Dream Partners
    Жанр: Мультфильм, Комедия, Приключения
    Режиссер: Микинори Сакакибара, Кунихико Юяма

    Описание

    История маленького чёрного котёнка с гордым именем Рудольф, жившего счастливо и спокойно ровно до тех пор, пока по роковой случайности он не оказался в неизвестном большом городе. Здесь герою придётся выживать без ласки и заботы хозяев, а ведь раньше он был твёрдо убежден, что всегда будет в полной безопасности.

    Дата мировой премьеры: 22 июня 2016, ...
    Дата российской премьеры: 13 июля 2017, АКМ
    Продолжительность: 01: 28: 39
    Качество видео: BDRip 720p
    Перевод: Дублированный
    Субтитры: Отсутствуют
    Реклама: Отсутствует
    Видео: AVC/H.264, 1280x720 (16: 9), 23.976 fps, 5666 Kbps (0.256 bit/pixel)
    Аудио #1: AC-3, 48.0 KHz, 2 ch, 192 Kbps, CBR (Русский)
    Аудио #2: AC-3, 48.0 KHz, 6 ch, 640 Kbps, CBR (Японский)

    Complete name : Rudolf.the.Black.Cat.2016.BDRip.720p.mkv
    Format : Matroska
    Format version : Version 4/Version 2
    File size : 4.03 GiB
    Duration : 1h 28mn
    Overall bit rate : 6 500 Kbps
    Movie name : Rudolf The Black Cat (2016)
    Encoded date : UTC 2017-08-27 04: 05: 05
    Writing application : mkvmerge v7.7.0 (\'Six Voices\') 64bit built on Feb 28 2015 23: 39: 33
    Writing library : libebml v1.3.1 + libmatroska v1.4.2
    DURATION : 01: 28: 38.368000000
    NUMBER_OF_FRAMES : 166199
    NUMBER_OF_BYTES : 127640832
    _STATISTICS_WRITING_APP : mkvmerge v7.7.0 (\'Six Voices\') 64bit built on Feb 28 2015 23: 39: 33
    _STATISTICS_WRITING_DATE_UT : 2017-08-27 04: 05: 05
    _STATISTICS_TAGS : BPS DURATION NUMBER_OF_FRAMES NUMBER_OF_BYTES
    Video
    ID : 1
    Format : AVC
    Format/Info : Advanced Video Codec
    Format profile : High@L4.1
    Format settings, CABAC : Yes
    Format settings, ReFrames : 9 frames
    Codec ID : V_MPEG4/ISO/AVC
    Duration : 1h 28mn
    Bit rate : 5 666 Kbps
    Width : 1 280 pixels
    Height : 720 pixels
    Display aspect ratio : 16: 9
    Frame rate mode : Constant
    Frame rate : 23.976 fps
    Color space : YUV
    Chroma subsampling : 4: 2: 0
    Bit depth : 8 bits
    Scan type : Progressive
    Bits/(Pixel*Frame) : 0.256
    Stream size : 3.43 GiB (85%)
    Writing library : x264 core 129 r2245+704+36 8e61944 tMod+MixAQ 8-bit@4: 2: 0 X86_64
    Encoding settings : cabac=1/ref=9/deblock=1: -1: -1/analyse=0x3: 0x133/me=umh/subme=11/psy=1/fade_compensate=0.00/psy_rd=1.00: 0.00/mixed_ref=1/me_range=32/chroma_me=1/trellis=2/8x8dct=1/cqm=0/deadzone=21, 11/fast_pskip=0/chroma_qp_offset=-2/threads=18/lookahead_threads=3/sliced_threads=0/nr=0/decimate=0/interlaced=0/bluray_compat=0/constrained_intra=0/fgo=0/bframes=10/b_pyramid=2/b_adapt=2/b_bias=0/direct=3/weightb=1/open_gop=0/weightp=2/keyint=250/keyint_min=23/scenecut=40/intra_refresh=0/rc=2pass/mbtree=0/bitrate=5666/ratetol=1.0/qcomp=0.70/qpmin=0/qpmax=69/qpstep=4/cplxblur=20.0/qblur=0.5/ip_ratio=1.40/pb_ratio=1.30/aq=1/aq-strength=0.95/aq-sensitivity=10.00/aq-ifactor=1.00/aq-pfactor=1.00/aq-bfactor=1.00/aq2=0
    Language : Japanese
    Default : Yes
    Forced : No
    DURATION : 01: 28: 39.314000000
    NUMBER_OF_FRAMES : 127536
    NUMBER_OF_BYTES : 3767615535
    _STATISTICS_WRITING_APP : mkvmerge v7.7.0 (\'Six Voices\') 64bit built on Feb 28 2015 23: 39: 33
    _STATISTICS_WRITING_DATE_UT : 2017-08-27 04: 05: 05
    _STATISTICS_TAGS : BPS DURATION NUMBER_OF_FRAMES NUMBER_OF_BYTES
    Audio #1
    ID : 2
    Format : AC-3
    Format/Info : Audio Coding 3
    Mode extension : CM (complete main)
    Format settings, Endianness : Big
    Codec ID : A_AC3
    Duration : 1h 28mn
    Bit rate mode : Constant
    Bit rate : 192 Kbps
    Channel(s) : 2 channels
    Channel positions : Front: L R
    Sampling rate : 48.0 KHz
    Compression mode : Lossy
    Stream size : 122 MiB (3%)
    Language : Russian
    Default : Yes
    Forced : No
    Audio #2
    ID : 3
    Format : AC-3
    Format/Info : Audio Coding 3
    Mode extension : CM (complete main)
    Format settings, Endianness : Big
    Codec ID : A_AC3
    Duration : 1h 28mn
    Bit rate mode : Constant
    Bit rate : 640 Kbps
    Channel(s) : 6 channels
    Channel positions : Front: L C R, Side: L R, LFE
    Sampling rate : 48.0 KHz
    Compression mode : Lossy
    Stream size : 406 MiB (10%)
    Language : Japanese
    Default : No
    Forced : No
    Menu
    00: 00: 00.000 : en: 00: 00: 00.000
    00: 13: 02.823 : en: 00: 13: 02.823
    00: 28: 16.653 : en: 00: 28: 16.653
    00: 43: 11.714 : en: 00: 43: 11.714
    00: 59: 12.840 : en: 00: 59: 12.840
    01: 09: 13.148 : en: 01: 09: 13.148
    01: 24: 27.062 : en: 01: 24: 27.062

    Скриншоты для ознакомления


    Все одноименные релизы в Клубе
    Смотрите также другиемои раздачи
    Время раздачи: С 08: 00 до 23: 00 (до появления первых 3-5 скачавших)

    Онлайн видео Жил-был кот



    Жил-был кот/Rudolf the Black Cat (2016) BDRip [H.264/720p]
    загрузка...
    Рейтинг →
     (голосов: 1, оценка 4/5, голосовать можно 1 раз )

    Другие торренты по теме:

  • Жил-был кот / Rudolf the Black Cat (2016) HDRip
  • Жил-был кот / Rudolf The Black Cat (2016) HDRip [H.264]
  • Жил-был кот / Rudolf the Black Cat (2016) WEB-DL [H.264] [MP4|1280x720]
  • Жил-был кот / Rudolf the Black Cat / Rudorufu to ippai attena (2016) BDRip [H.264] [AVO]


    • Комментарии (0):

      Информация

      Информация

        Посетители, находящиеся в группе Гости, не могут оставлять комментарии в данной новости.

        ↓ Меню




        ↓ Опрос

        Вы добавили сайт в закладки?
        Да
        Нет


        Top 10 за месяц (Мультфильмы)