.
Авторизация | Регистрация
Хочешь лучшие торренты? Добавь свой email!
Добавить

Торрент скачать бесплатно

» » Подводная эра / Deep (2017) WEB-DLRip [Звук с TS] [AD] торрент скачать бесплатно




    Подводная эра / Deep (2017) WEB-DLRip [Звук с TS] [AD] торрент скачать бесплатно

    Опубликовал: Админ | Дата: 28-08-2017, 05:00 | Просмотров: 1

    Производство: США, Испания, Бельгия/The Thinklab, Kraken Films, The, Umedia
    Жанр: Мультфильм, Приключения, Комедия
    Режиссер: Джулио Сото Гарпид
    Персонажи: Джастин Фелбингер, Линдси Алена, Стивен Хьюз, Льюис Маклауд, Джесс Харнелл, Фил ЛаМарр, Джефф Беннетт, Дэйв Фенной, Боб Берген, Джен Тейлор

    Описание

    К 2100 году люди покинули нашу планету. Но в глубокой впадине на самом дне океана продолжает жить колония удивительных морских существ. Среди них любопытный глубоководный осьминожек Дип и двое его друзей — пугливый удильщик Иво и хлещет как из ведра импульсивная креветка Элис. Однако, когда их дому угрожает опасность, мудрый дедушка Дипа, гигантский осьминог Кракен, отправляет их за помощью на другой конец океана. Друзей и присоединившуюся к ним стеснительную мурену Мойру ждет целое море опасных и невероятных приключений…

    Возраст: 6+ (зрителям, достигшим 6 лет)
    Рейтинг MPAA: PG (рекомендуется присутствие родителей)
    Дата мировой премьеры: 11 мая 2017
    Дата российской премьеры: 1 июня 2017, Вольга
    Продолжительность: 01: 32: 38
    Качество видео: WEB-DLRip
    Перевод: Дублированный (Звук с TS)
    Субтитры: отсутствуют
    Реклама: присутствуют аудио и видео вставки рекламы
    Видео: Xvid, 720x384, ~1718 kbps
    Аудио: AC3, 2 ch, 384 Kbps

    General
    Complete name : D: Zona DownloadsDeep.2017.Dt..WEB-DLRip.14OOMB.avi
    Format : AVI
    Format/Info : Audio Video Interleave
    File size : 1.37 GiB
    Duration : 1 h 32 min
    Overall bit rate : 2 112 kb/s
    Writing application : VirtualDubMod 1.5.10.2 (build 2540/release)
    Writing library : VirtualDubMod build 2540/release
    Video
    ID : 0
    Format : MPEG-4 Visual
    Format profile : Advanced Simple@L5
    Format settings, BVOP : 2
    Format settings, QPel : No
    Format settings, GMC : No warppoints
    Format settings, Matrix : Default (MPEG)
    Codec ID : XVID
    Codec ID/Hint : XviD
    Duration : 1 h 32 min
    Bit rate : 1 719 kb/s
    Width : 720 pixels
    Height : 384 pixels
    Display aspect ratio : 1.85: 1
    Frame rate : 23.976 (24000/1001) FPS
    Color space : YUV
    Chroma subsampling : 4: 2: 0
    Bit depth : 8 bits
    Scan type : Progressive
    Compression mode : Lossy
    Bits/(Pixel*Frame) : 0.259
    Stream size : 1.11 GiB (81%)
    Writing library : XviD 1.2.1 (UTC 2008-12-04)
    Audio
    ID : 1
    Format : AC-3
    Format/Info : Audio Coding 3
    Format settings, Endianness : Big
    Codec ID : 2000
    Duration : 1 h 32 min
    Bit rate mode : Constant
    Bit rate : 384 kb/s
    Channel(s) : 2 channels
    Channel positions : Front: L R
    Sampling rate : 48.0 kHz
    Frame rate : 31.250 FPS (1536 SPF)
    Bit depth : 16 bits
    Compression mode : Lossy
    Stream size : 254 MiB (18%)
    Alignment : Split accross interleaves
    Interleave, duration : 42 ms (1.00 video frame)
    Interleave, preload duratio : 500 ms
    Service kind : Complete Main

    Скриншоты для ознакомления



    Все одноименные релизы в Клубе
    Время раздачи: Пн-Пт с 18: 00 до 23: 00, Сб-Вс с 10: 00 до 23: 30 (до появления первых 3-5 скачавших)

    Онлайн видео Подводная эра



    Подводная эра/Deep (2017) WEB-DLRip [Звук с TS] [AD]
    загрузка...
    Рейтинг →
     (голосов: 1, оценка 3/5, голосовать можно 1 раз )

    Другие торренты по теме:

  • Подводная эра / Deep (2017) WEB-DL [H.264 / 720p-LQ] [EN]
  • Подводная эра / Deep (2017) WEB-DL [H.264 / 720p-LQ]
  • Подводная эра / Deep (2017) WEB-DLRip
  • Подводная эра / Deep (2017) WEB-DLRip [H.264]


    • Комментарии (0):

      Информация

      Информация

        Посетители, находящиеся в группе Гости, не могут оставлять комментарии в данной новости.

        ↓ Меню




        ↓ Опрос

        Вы добавили сайт в закладки?
        Да
        Нет


        Top 10 за месяц (Мультфильмы)