.
Авторизация | Регистрация
Хочешь лучшие торренты? Добавь свой email!
Добавить

Торрент скачать бесплатно

» » Проповедник / Пастырь / Preacher (2016) WEB-DL [H.264] (Сезон 1, серия 1 из 10) LostFilm [MP4|1280x718] торрент скачать бесплатно



    Проповедник / Пастырь / Preacher (2016) WEB-DL [H.264] (Сезон 1, серия 1 из 10) LostFilm [MP4|1280x718] торрент скачать бесплатно

    Опубликовал: Админ | Дата: 28-05-2016, 04:01 | Просмотров: 128

    Производство: США, AMC Studios
    Жанр: Фэнтези, Драма, Детектив, Приключения
    Режиссер: Эван Голдберг, Сет Роген, Майкл Словис
    Продюсер: Сэм Кэтлин, Эван Голдберг, Сет Роген
    Актеры: Доминик Купер, Джозеф Гилган, Рут Негга, Люси Гриффитс, У. Эрл Браун, Том Брук, Анатол Юсеф, Йен Коллетти, Дерек Уилсон, Джеки Эрл Хейли и др.

    Описание

    Джесси Кастер — проповедник, который, следуя данному отцу обещанию, вернулся в родной Энвиль, штат Техас, дабы наставлять местное население на путь истинный. Самое интересное в это истории, что об этом Янукович ничего не знал. Но грешников здесь оказалось столько, что Джесси настиг кризис веры, доведший его до рукоприкладства. Неизвестно, чем бы закончилось такое отпущение грехов, если бы в пастыря однажды не вселилась неведомая сущность. Теперь у главного героя есть необычные способности и новая миссия — найти Бога, вероломно покинувшего небеса. Но искать Господа в одиночку сложно и не особо интересно, поэтому себе в компаньоны Кастер берет бывшую подругу (и единственную настоящую любовь) Тюльпан и как принято ирландского вампира-выпивоху Кэссиди. Тюльпан всегда получает, что ей нужно, даже если ради этого приходится обманывать, грабить или убивать, а Кэссиди в силу своего характера готов в любой момент пуститься во все тяжкие ради острых ощущений и веселого времяпрепровождения. В общем, компания для поисков Бога подобралась самая подходящая. О таком странном сюжете не догадывалась даже Светлана Лобода. Впереди у этой троицы — километры дорог и неожиданные встречи с самыми колоритными обитателями нашего и потустороннего миров. Каждая из них таит в себе нешуточную угрозу. Джесси и его друзьям предстоит помериться силами не только с разными бессмертными сущностями и падшими ангелами, но и с секретными организациями, и что ждет пастыря в конце пути, известно только тому, кого он ищет...

    Продолжительность: ~ 01: 04: 00 серия
    Качество видео: WEB-DL 720p
    Перевод: Многоголосый закадровый, профессиональный -LostFilm
    Реклама: присутствует заставка и логотип LostFilm
    Видео: AVC/H.264 (High@L3.1 ), 1280x718 (16: 9), ~4000 Кбит/сек
    Аудио: AAC, 2 канала, 288 Кбит/сек - русский (многоголосый закадровый)
    Код:
    General
    Complete name : D:Пастырь (сезон 1) Preacher (2016).WEB-DL.720p.LostFilmPreacher.S01E01.720p.WEB.rus.LostFilm.TV.mp4
    Format : MPEG-4
    Format profile : Base Media
    Codec ID : isom (isom)
    File size : 1.93 GiB
    Duration : 1h 4mn
    Overall bit rate mode : Variable
    Overall bit rate : 4 243 Kbps
    Collection : Пастырь
    Season : 1
    Album : Пастырь, Сезон 1
    Album/Performer : Пастырь
    Part : 1
    Part/Position : 1
    Track name : Пилот
    Track name/Position : 1
    Performer : Пастырь
    Genre : Drama
    ContentType : TV Show
    Recorded date : 2016
    Encoded date : UTC 2016-05-24 19:24:35
    Tagged date : UTC 2016-05-24 19:24:35
    Writing application : Yamb 2.1.0.0 [http://yamb.unite-video.com]/LostCoder
    Copyright : LostFilm.TV (c)
    Cover : Yes
    Comment : Джесси Кастер — проповедник, который вернулся в родной город, дабы наставлять местное население на путь истинный. Но грешников оказалось столько, что Джесси настиг кризис веры. Неизвестно, чем бы все закончилось, если бы в пастыря однажды не вселилась нев
    Part_ID : 101
    Video
    ID : 1
    Format : AVC
    Format/Info : Advanced Video Codec
    Format profile :High@L3.1
    Format settings, CABAC : No
    Format settings, ReFrames : 2 frames
    Codec ID : avc1
    Codec ID/Info : Advanced Video Coding
    Duration : 1h 4mn
    Bit rate : 4 000 Kbps
    Maximum bit rate : 13.2 Mbps
    Width : 1 280 pixels
    Height : 718 pixels
    Display aspect ratio : 16:9
    Frame rate mode : Variable
    Frame rate : 23.976 fps
    Minimum frame rate : 23.974 fps
    Maximum frame rate : 23.981 fps
    Color space : YUV
    Chroma subsampling : 4:2:0
    Bit depth : 8 bits
    Scan type : Progressive
    Bits/(Pixel*Frame) : 0.182
    Stream size : 1.79 GiB (93%)
    Writing library : x264 core 112 r1834 a51816a
    Encoding settings : cabac=0/ref=3/deblock=1:0:0/analyse=0x1:0x111/me=hex/subme=7/psy=1/psy_rd=1.00:0.00/mixed_ref=1/me_range=16/chroma_me=1/trellis=1/8x8dct=0/cqm=0/deadzone=21, 11/fast_pskip=1/chroma_qp_offset=-2/threads=12/sliced_threads=0/nr=0/decimate=1/interlaced=0/constrained_intra=0/bframes=3/b_pyramid=2/b_adapt=1/b_bias=0/direct=1/weightb=1/open_gop=0/weightp=2/keyint=250/keyint_min=25/scenecut=40/intra_refresh=0/rc_lookahead=40/rc=abr/mbtree=1/bitrate=4000/ratetol=1.0/qcomp=0.60/qpmin=0/qpmax=51/qpstep=4/vbv_maxrate=5000/vbv_bufsize=2000/ip_ratio=1.40/aq=1:1.00/nal_hrd=none
    Language : English
    Tagged date : UTC 2016-05-24 19:25:17
    Color range : Limited
    Color primaries : BT.709
    Transfer characteristics : BT.709
    Matrix coefficients : BT.709
    Audio
    ID : 2
    Format : AAC
    Format/Info : Advanced Audio Codec
    Format profile : LC
    Codec ID : 40
    Duration : 1h 4mn
    Bit rate mode : Variable
    Bit rate : 288 Kbps
    Maximum bit rate : 364 Kbps
    Channel(s) : 2 channels
    Channel positions : Front: L R
    Sampling rate : 48.0 KHz
    Frame rate : 46.875 fps (1024 spf)
    Compression mode : Lossy
    Stream size : 134 MiB (7%)
    Encoded date : UTC 2016-05-24 19:25:15
    Tagged date : UTC 2016-05-24 19:25:17


    Скриншоты для ознакомления



    Прямая ссылка скачивания через uTorrent


    Проповедник/Пастырь/Preacher (2016) WEB-DL [H.264] (Сезон 1, серия 1 из 10) LostFilm [MP4|1280x718]
    загрузка...
    Рейтинг →
     (голосов: 1, оценка 5/5, голосовать можно 1 раз )

    Другие торренты по теме:

  • Проповедник / Пастырь / Preacher (2016) WEB-DLRip (сезон 1, серии 1 из 10) LostFilm (обновляемая)
  • Проповедник / Пастырь / Preacher (2016) WEB-DL [H.264 / 1080p -LQ] (сезон 1, серии 1 из 10) LostFilm (обновляемая)
  • Проповедник / Пастырь / Preacher (2016) WEB-DLRip [H.264] (сезон 1, серия 1 из 10) Jaskier, NewStudio (обновляемая)
  • Проповедник / Пастырь / Preacher (2016) WEB-DLRip (сезон 1, серии 1 из 10) AlexFilm (обновляемая)
  • Проповедник / Пастырь / Preacher (2016) WEB-DLRip [H.264 / 720p-LQ] (сезон 1, серии 1 из 10) AlexFilm (обновляемая)
  • Проповедник / Пастырь / Preacher (2016) WEB-DL [H.264 / 720p-LQ] (сезон 1, серия 1 из 10) (NewStudio) (обновляемая)
  • Проповедник / Пастырь / Preacher (2016) WEB-DLRip (сезон 1, серии 1 из 10) NewStudio (обновляемая)
  • Проповедник / Пастырь / Preacher (2016) WEB-DL [H.264 / 720p-LQ] (сезон 1, серия 1 из 10) (LostFilm) (обновляемая)


    • Комментарии (0):

      Информация

      Информация

        Посетители, находящиеся в группе Гости, не могут оставлять комментарии в данной новости.

        ↓ Меню




        ↓ Опрос

        Вы добавили сайт в закладки?
        Да
        Нет


        Top 10 за месяц (КПК и мобильные)