.
Авторизация | Регистрация
Хочешь лучшие торренты? Добавь свой email!
Добавить

Торрент скачать бесплатно

» » Древние / Первородные / The Originals (2015) WEB-DL [H.264] (Сезон 3, серии 1-21 из 22) LostFilm [MP4|1280x718] торрент скачать бесплатно



    Древние / Первородные / The Originals (2015) WEB-DL [H.264] (Сезон 3, серии 1-21 из 22) LostFilm [MP4|1280x718] торрент скачать бесплатно

    Опубликовал: Админ | Дата: 19-05-2016, 16:46 | Просмотров: 78

    Производство: США/Bonanza Productions, My So-Called Company, Alloy Entertainment
    Жанр: Драма, Ужасы, Фэнтези, Детектив
    Режиссер: Мэттью Хатингс, Крис Грисмер, Джесси Уарн
    Продюсер: Дайан Адему-Джон, Лесли Морганштейн, Джули Плек
    Актеры: Джозеф Морган, Дэниэл Гиллис, Чарльз Майкл Дэвис, Фиби Тонкин, Клер Холт, Леа Пайпс, Даниэль Кэмпбелл, Юсуф Гейтвуд и др.

    Описание

    Первородные — спин-офф Дневников вампира, в центре которого находятся несколько основных персонажей сериала.
    Третий сезон начнётся с отдалившихся друг от друга Клауса и Элайджи, хотя братьям и удается наладить отношения с давно потерянной сестрой Фреей. Хейли безмерно страдает из-за мелочной мстительности Клауса, в то время, как Марсель и Давина правят городом в соответствии с новым положением дел. Ками и Винсент оказываются вовлечены в поразительную тайну, связанную с новым жителем Нового Орлеана - первым вампиром в истории, тысячу лет назад созданным семейством Майклсонов.

    Продолжительность: ~00: 42: 00 серия
    Качество видео: WEB-DL 720p
    Перевод: Многоголосый закадровый, профессиональный -LostFilm
    Реклама: присутствует заставка и логотип LostFilm
    Видео: AVC/H.264 (High@L3.1 ), 1280x718 (16: 9), ~4000 Кбит/сек
    Аудио: AAC, 2 канала, 256 Кбит/сек - русский (многоголосый закадровый)
    Код:
    General
    Complete name : D:Первородные (сезон 3) The Originals (2015).WEB-DL.720p.LostFilmThe.Originals.S03E12.720p.WEB.rus.LostFilm.TV.mp4
    Format : MPEG-4
    Format profile : Base Media
    Codec ID : isom
    File size : 1.26 GiB
    Duration : 42mn 22s
    Overall bit rate mode : Variable
    Overall bit rate : 4 248 Kbps
    Collection : Первородные
    Season : 3
    Album : Первородные, Сезон 3
    Album/Performer : Первородные
    Part : 12
    Part/Position : 3
    Track name : Мёртвые ангелы
    Track name/Position : 12
    Performer : Первородные
    Genre : Sci-Fi Fantasy
    ContentType : TV Show
    Recorded date : 2016
    Encoded date : UTC 2016-02-14 19:01:48
    Tagged date : UTC 2016-02-14 19:01:48
    Writing application : Yamb 2.1.0.0 [http://yamb.unite-video.com]/LostCoder
    Copyright : LostFilm.TV (c)
    Cover : Yes
    Comment : До того, как появились вампиры, миром правили Первородные. Спустя долгие годы Клаус возвращается в родной Новый Орлеан. Его старый друг и ученик Марсель навел в городе свои порядки и установил строгие правила на колдовство ведьм.
    Part_ID : 312
    Video
    ID : 1
    Format : AVC
    Format/Info : Advanced Video Codec
    Format profile :High@L3.1
    Format settings, CABAC : No
    Format settings, ReFrames : 2 frames
    Codec ID : avc1
    Codec ID/Info : Advanced Video Coding
    Duration : 42mn 22s
    Bit rate : 4 000 Kbps
    Maximum bit rate : 12.6 Mbps
    Width : 1 280 pixels
    Height : 718 pixels
    Display aspect ratio : 16:9
    Frame rate mode : Variable
    Frame rate : 23.976 fps
    Minimum frame rate : 23.974 fps
    Maximum frame rate : 23.981 fps
    Color space : YUV
    Chroma subsampling : 4:2:0
    Bit depth : 8 bits
    Scan type : Progressive
    Bits/(Pixel*Frame) : 0.182
    Stream size : 1.19 GiB (94%)
    Writing library : x264 core 112 r1834 a51816a
    Encoding settings : cabac=0/ref=3/deblock=1:0:0/analyse=0x1:0x111/me=hex/subme=7/psy=1/psy_rd=1.00:0.00/mixed_ref=1/me_range=16/chroma_me=1/trellis=1/8x8dct=0/cqm=0/deadzone=21, 11/fast_pskip=1/chroma_qp_offset=-2/threads=6/sliced_threads=0/nr=0/decimate=1/interlaced=0/constrained_intra=0/bframes=3/b_pyramid=2/b_adapt=1/b_bias=0/direct=1/weightb=1/open_gop=0/weightp=2/keyint=250/keyint_min=25/scenecut=40/intra_refresh=0/rc_lookahead=40/rc=abr/mbtree=1/bitrate=4000/ratetol=1.0/qcomp=0.60/qpmin=0/qpmax=51/qpstep=4/vbv_maxrate=5000/vbv_bufsize=2000/ip_ratio=1.40/aq=1:1.00/nal_hrd=none
    Language : English
    Tagged date : UTC 2016-02-14 19:04:22
    Color range : Limited
    Color primaries : BT.709
    Transfer characteristics : BT.709
    Matrix coefficients : BT.709
    Audio
    ID : 2
    Format : AAC
    Format/Info : Advanced Audio Codec
    Format profile : LC
    Codec ID : 40
    Duration : 42mn 22s
    Bit rate mode : Variable
    Bit rate : 233 Kbps
    Maximum bit rate : 295 Kbps
    Channel(s) : 2 channels
    Channel positions : Front: L R
    Sampling rate : 48.0 KHz
    Compression mode : Lossy
    Stream size : 70.7 MiB (5%)
    Encoded date : UTC 2016-02-14 19:04:20
    Tagged date : UTC 2016-02-14 19:04:22


    Скриншоты для ознакомления



    Прямая ссылка скачивания через uTorrent


    Древние/Первородные/The Originals (2015) WEB-DL [H.264] (Сезон 3, серии 1-21 из 22) LostFilm [MP4|1280x718]
    загрузка...
    Рейтинг →
     (голосов: 1, оценка 5/5, голосовать можно 1 раз )

    Другие торренты по теме:

  • Древние / Первородные / The Originals (2014) WEB-DLRip (сезон 2, серии 1 из ) BaibaKo (oбновляемая)
  • Древние / Первородные / The Originals (2014) WEB-DLRip (сезон 2, серии 1-2 из ) LostFilm (oбновляемая)
  • Древние / Первородные / The Originals (2014) WEB-DL [H.264 / 720p-LQ] (сезон 2, серии 1-6 из ) LostFilm (oбновляемая) скачать через торрент бесплатно
  • Древние / Первородные / The Originals (2014) WEB-DLRip (сезон 2, серии 1-19 из 22) LostFilm (oбновляемая) скачать через торрент бесплатно
  • Древние / Первородные / The Originals (2015) WEB-DLRip (сезон 3, серии 1 из 22) LostFilm (обновляемая) скачать через торрент бесплатно
  • Древние / Первородные / The Originals (2015) WEB-DLRip [H.264 / 1080p-LQ] (сезон 3, серии 1 из 22) LostFilm (обновляемая) скачать через торрент бесплатно
  • Древние / Первородные / The Originals (2014-2015) BDRemux [H.264 / 1080p] (сезон 2, дополнительные материалы) [EN / EN Sub]
  • Древние / Первородные / The Originals (2013-2014) BDRemux [H.264 / 1080p] (сезон 1, дополнительные материалы) [EN / EN Sub]


    • Комментарии (0):

      Информация

      Информация

        Посетители, находящиеся в группе Гости, не могут оставлять комментарии в данной новости.

        ↓ Меню




        ↓ Опрос

        Вы добавили сайт в закладки?
        Да
        Нет


        Top 10 за месяц (КПК и мобильные)