.
Авторизация | Регистрация
Хочешь лучшие торренты? Добавь свой email!
Добавить

Торрент скачать бесплатно

» » Секретные материалы / The X-Files (1993-1994) HDRip [H.264] (Сезон 1-2, серии 1-49 из 49) ОРТ, ТВ3, РЕН ТВ [MP4|960х544] торрент скачать бесплатно



    Секретные материалы / The X-Files (1993-1994) HDRip [H.264] (Сезон 1-2, серии 1-49 из 49) ОРТ, ТВ3, РЕН ТВ [MP4|960х544] торрент скачать бесплатно

    Опубликовал: Админ | Дата: 16-05-2016, 04:00 | Просмотров: 1168

    Производство: США, Канада
    Жанр: Фантастика, Триллер, Детектив
    Режиссер: Крис Картер
    Актеры: Джиллиан Андерсон, Дэвид Духовны, Митч Пилледжи, Роберт Патрик, Том Брэйдвуд, Уильям Б. Дэвис, Брюс Харвуд, Дин Хэглунд, Николас Ли, Аннабет Гиш

    Описание

    Специальному агенту Дане Скалли, доктору и преподавателю академии ФБР в Вирджинии, поручают работу в паре с агентом Фоксом Малдером над проектом Секретные материалы, архивом таинственных, нерешенных дел ФБР, которые зачастую связаны с паранормальными явлениями, случаями вампиризма и оборотничества, нападением генетических мутантов, свидетельствами о похищении людей пришельцами…
    Малдер верит в пришельцев и пытается убедить скептика Скалли, что не всё и не всегда поддаётся разумному объяснению. В своих дискуссиях Малдер и Скалли не столько стараются убедить друг друга, сколько получают удовольствие от самого общения. Постепенно первоначальное взаимное недоверие перерастает в дружбу, а чуть позже и в более глубокое чувство.

    Продолжительность: ~00: 45: 00 серия
    Качество видео: HDRip
    Перевод: Многоголосый закадровый, дублированный, двухголосый закадровый
    Видео: AVC/H.264, 960х544, ~1234 Kbps
    Аудио#1: AAC, 2 ch, 160 Kbps - русский (Многоголосый закадровый, ОРТ)
    Аудио#2: AAC, 2 ch, 160 Kbps - русский (Дублированный, ТВ3)
    Аудио#3: AAC, 2 ch, 160 Kbps - русский (Двухголосый закадровый, РЕН ТВ)
    Код:

    General
    Complete name : Секретные материалы (1993) Сезон 1The.X-Files.01x01.Deep.Throat.mp4
    Format : MPEG-4
    Format profile : Base Media
    Codec ID : isom
    File size : 565 MiB
    Duration : 45mn 49s
    Overall bit rate : 1 724 Kbps
    Movie name : The X-Files Season 1: Deep Throat [NoNaMe-Club-rip by alien.09]
    Encoded date : UTC 2016-01-08 03:01:59
    Tagged date : UTC 2016-01-08 03:01:59
    Video
    ID : 1
    Format : AVC
    Format/Info : Advanced Video Codec
    Format profile :Main@L4.1
    Format settings, CABAC : Yes
    Format settings, ReFrames : 3 frames
    Codec ID : avc1
    Codec ID/Info : Advanced Video Coding
    Duration : 45mn 49s
    Bit rate : 1 234 Kbps
    Width : 960 pixels
    Height : 544 pixels
    Display aspect ratio : 16:9
    Original display aspect ratio : 16:9
    Frame rate mode : Constant
    Frame rate : 23.976 fps
    Color space : YUV
    Chroma subsampling : 4:2:0
    Bit depth : 8 bits
    Scan type : Progressive
    Bits/(Pixel*Frame) : 0.099
    Stream size : 404 MiB (72%)
    Writing library : x264 core 128 r2216M 198a7ea
    Encoding settings : cabac=1/ref=3/deblock=1:-1:-1/analyse=0x1:0x131/me=hex/subme=7/psy=1/psy_rd=0.40:0.15/mixed_ref=1/me_range=16/chroma_me=1/trellis=1/8x8dct=0/cqm=0/deadzone=21, 11/fast_pskip=1/chroma_qp_offset=-3/threads=8/lookahead_threads=1/sliced_threads=0/nr=0/decimate=1/interlaced=0/bluray_compat=0/constrained_intra=0/bframes=3/b_pyramid=0/b_adapt=2/b_bias=0/direct=3/weightb=1/open_gop=0/weightp=0/keyint=230/keyint_min=23/scenecut=40/intra_refresh=0/rc_lookahead=40/rc=2pass/mbtree=1/bitrate=1234/ratetol=1.0/qcomp=0.60/qpmin=10/qpmax=51/qpstep=4/cplxblur=20.0/qblur=0.5/vbv_maxrate=5000/vbv_bufsize=1835/nal_hrd=none/ip_ratio=1.40/aq=1:0.60
    Language : English
    Encoded date : UTC 2016-01-08 03:01:59
    Tagged date : UTC 2016-01-08 03:01:59
    Audio #1
    ID : 2
    Format : AAC
    Format/Info : Advanced Audio Codec
    Format profile : LC
    Codec ID : 40
    Duration : 45mn 49s
    Bit rate mode : Constant
    Bit rate : 160 Kbps
    Channel count : 2 channels
    Channel positions : Front: L R
    Sampling rate : 48.0 KHz
    Compression mode : Lossy
    Stream size : 52.4 MiB (9%)
    Language : Russian
    Encoded date : UTC 2016-01-08 03:01:59
    Tagged date : UTC 2016-01-08 03:01:59
    Audio #2
    ID : 3
    Format : AAC
    Format/Info : Advanced Audio Codec
    Format profile : LC
    Codec ID : 40
    Duration : 45mn 49s
    Bit rate mode : Constant
    Bit rate : 160 Kbps
    Channel count : 2 channels
    Channel positions : Front: L R
    Sampling rate : 48.0 KHz
    Compression mode : Lossy
    Stream size : 52.4 MiB (9%)
    Language : Russian
    Encoded date : UTC 2016-01-08 03:01:59
    Tagged date : UTC 2016-01-08 03:01:59
    Audio #3
    ID : 4
    Format : AAC
    Format/Info : Advanced Audio Codec
    Format profile : LC
    Codec ID : 40
    Duration : 45mn 49s
    Bit rate mode : Constant
    Bit rate : 160 Kbps
    Channel count : 2 channels
    Channel positions : Front: L R
    Sampling rate : 48.0 KHz
    Compression mode : Lossy
    Stream size : 52.4 MiB (9%)
    Language : Russian
    Encoded date : UTC 2016-01-08 03:01:59
    Tagged date : UTC 2016-01-08 03:01:59
    Код:

    General
    Complete name : Секретные материалыСекретные материалы (1994) Сезон 2The.X-Files.02x01.Little.Green.Men.mp4
    Format : MPEG-4
    Format profile : Base Media
    Codec ID : isom
    File size : 557 MiB
    Duration : 45mn 10s
    Overall bit rate : 1 724 Kbps
    Movie name : The X-Files Season 2: Little Greene Men [NoNaMe-Club rip by alien.09]
    Encoded date : UTC 2016-05-10 05:01:55
    Tagged date : UTC 2016-05-10 05:01:55
    Video
    ID : 1
    Format : AVC
    Format/Info : Advanced Video Codec
    Format profile :Main@L4.1
    Format settings, CABAC : Yes
    Format settings, ReFrames : 3 frames
    Codec ID : avc1
    Codec ID/Info : Advanced Video Coding
    Duration : 45mn 10s
    Bit rate : 1 234 Kbps
    Width : 960 pixels
    Height : 544 pixels
    Display aspect ratio : 16:9
    Original display aspect rat : 16:9
    Frame rate mode : Constant
    Frame rate : 23.976 fps
    Color space : YUV
    Chroma subsampling : 4:2:0
    Bit depth : 8 bits
    Scan type : Progressive
    Bits/(Pixel*Frame) : 0.099
    Stream size : 398 MiB (71%)
    Writing library : x264 core 128 r2216M 198a7ea
    Encoding settings : cabac=1/ref=3/deblock=1:-1:-1/analyse=0x1:0x131/me=hex/subme=7/psy=1/psy_rd=0.40:0.15/mixed_ref=1/me_range=16/chroma_me=1/trellis=1/8x8dct=0/cqm=0/deadzone=21, 11/fast_pskip=1/chroma_qp_offset=-3/threads=8/lookahead_threads=1/sliced_threads=0/nr=0/decimate=1/interlaced=0/bluray_compat=0/constrained_intra=0/bframes=3/b_pyramid=0/b_adapt=2/b_bias=0/direct=3/weightb=1/open_gop=0/weightp=0/keyint=230/keyint_min=23/scenecut=40/intra_refresh=0/rc_lookahead=40/rc=2pass/mbtree=1/bitrate=1234/ratetol=1.0/qcomp=0.60/qpmin=10/qpmax=51/qpstep=4/cplxblur=20.0/qblur=0.5/vbv_maxrate=5000/vbv_bufsize=1835/nal_hrd=none/ip_ratio=1.40/aq=1:0.60
    Language : English
    Encoded date : UTC 2016-05-10 05:01:55
    Tagged date : UTC 2016-05-10 05:01:55
    Audio #1
    ID : 2
    Format : AAC
    Format/Info : Advanced Audio Codec
    Format profile : LC
    Codec ID : 40
    Duration : 45mn 10s
    Bit rate mode : Constant
    Bit rate : 160 Kbps
    Channel(s) : 2 channels
    Channel positions : Front: L R
    Sampling rate : 48.0 KHz
    Compression mode : Lossy
    Stream size : 51.7 MiB (9%)
    Language : Russian
    Encoded date : UTC 2016-05-10 05:01:55
    Tagged date : UTC 2016-05-10 05:01:55
    Audio #2
    ID : 3
    Format : AAC
    Format/Info : Advanced Audio Codec
    Format profile : LC
    Codec ID : 40
    Duration : 45mn 10s
    Bit rate mode : Constant
    Bit rate : 160 Kbps
    Channel(s) : 2 channels
    Channel positions : Front: L R
    Sampling rate : 48.0 KHz
    Compression mode : Lossy
    Stream size : 51.7 MiB (9%)
    Language : Russian
    Encoded date : UTC 2016-05-10 05:01:55
    Tagged date : UTC 2016-05-10 05:01:55
    Audio #3
    ID : 4
    Format : AAC
    Format/Info : Advanced Audio Codec
    Format profile : LC
    Codec ID : 40
    Duration : 45mn 10s
    Bit rate mode : Constant
    Bit rate : 160 Kbps
    Channel(s) : 2 channels
    Channel positions : Front: L R
    Sampling rate : 48.0 KHz
    Compression mode : Lossy
    Stream size : 51.7 MiB (9%)
    Language : Russian
    Encoded date : UTC 2016-05-10 05:01:55
    Tagged date : UTC 2016-05-10 05:01:55


    Скриншоты для ознакомления



    Прямая ссылка скачивания через uTorrent


    Секретные материалы/The X-Files (1993-1994) HDRip [H.264] (Сезон 1-2, серии 1-49 из 49) ОРТ, ТВ3, РЕН ТВ [MP4|960х544]
    загрузка...
    Рейтинг →
     (голосов: 1, оценка 5/5, голосовать можно 1 раз )

    Другие торренты по теме:

  • Секретные материалы. Выпуск №60 (2014.09.) SATRip [RUS / UKR]
  • Секретные материалы: ключи от долголетия (2014) HDTVRip
  • Секретные материалы. Выпуск №59 (2014.09.23) SATRip [RUS / UKR]
  • Секретные материалы. Выпуск №58 (2014.09.22) SATRip [RUS / UKR]
  • Секретные материалы: ключи от долголетия (2014) HDTV [H.264 / 1080i]
  • Секретные материалы. Выпуск №57 (2014.09.18) SATRip [RUS / UKR]
  • Секретные материалы. Выпуск №56 (2014.09.17) SATRip [RUS / UKR]
  • Секретные материалы. Выпуск №55 (2014.09.16) SATRip [RUS / UKR]


    • Комментарии (0):

      Информация

      Информация

        Посетители, находящиеся в группе Гости, не могут оставлять комментарии в данной новости.

        ↓ Меню




        ↓ Опрос

        Вы добавили сайт в закладки?
        Да
        Нет


        Top 10 за месяц (КПК и мобильные)