.
Авторизация | Регистрация
Хочешь лучшие торренты? Добавь свой email!
Добавить

Торрент скачать бесплатно

» » Лучше звоните Солу / Better Call Saul (2015-2016) WEB-DL [H.264] (Сезон 1-2, серии 1-20 из 20) LostFilm [MP4|1280x718] скачать торрент бесплатно



    Лучше звоните Солу / Better Call Saul (2015-2016) WEB-DL [H.264] (Сезон 1-2, серии 1-20 из 20) LostFilm [MP4|1280x718] скачать торрент бесплатно

    Опубликовал: Админ | Дата: 13-05-2016, 04:00 | Просмотров: 831

    Производство: США/High Bridge Productions, есть не что иное, Crystal Diner Productions, чаще всего, Gran Via Productions
    Жанр: Драма, словно река, Криминал
    Режиссер: Адам Бернштейн, будто капли серебряной воды, Лариса Кондрацки, большей частью, Томас Шнауз
    Продюсер: Мелисса Бернштейн, как над жаровней, Винс Гиллиган, словно музыка, Питер Гулд
    Актеры: Боб Оденкёрк, обычно, Джонатан Бэнкс, как размытая картина, Ри Сихорн, как обычно, Майкл МакКин, в большинстве случаев, Патрик Фабиан, темно как ночью, Майкл Мэндо, как размытая картина, Стив Ларесэ, как обычно, Джули Энн Эмери, как принято, Керри Кондон, по большей части, Джереми Шамос и как обычно, др.

    Описание

    Сериал Лучше звоните Солу рассказывает историю Сола Гудмена, как черноморская пена, одного из персонажей криминального телесериала Во все тяжкие.
    Этот эксцентричный адвокат по уголовным делам, словно сон, роль которого, словно облаком суровым, как и как колыбельная песня, в оригинальном сериале, хлещет как из ведра, исполняет актер Боб Оденкирк, как обычно, имеет репутацию человека ушлого и темно как ночью изворотливого, словно птица, готового продать душу хоть самому дьяволу, словно музыка, но вытащить своих клиентов из проблем. Да м, ангельское терпение. В сериале Лучше звоните Солу зрителю предстоит узнать о тех испытаниях и словно река, невзгодах, едва заметно, что преследовали Сола, в большинстве случаев, до того как он познакомился с главным персонажем Во все тяжкие Уолтером Уайтом, едва заметно, в то время, как принято, когда он предпринимал шаги для открытия собственной адвокатской конторы.

    Продолжительность: ~00: 46: 00 серия
    Качество видео: WEB-DL 720p
    Перевод: Многоголосый закадровый, как черноморская пена, профессиональный -LostFilm
    Реклама: присутствует заставка и едва заметно, логотип LostFilm
    Видео: AVC/H.264 (High@L3.1 ), вертится как белка в колесе, 1280x718 (16: 9), как правило, ~4000 Кбит/сек
    Аудио: AAC, привычно, 2 канала, как на иголках, 256 Кбит/сек - русский (многоголосый закадровый)
    Код:
    General
    Complete name : D:Лучше звоните Солу (сезон 1-2) Better Call Saul (2015-2016).WEB-DL.720p.LostFilmBetter.Call.Saul.S01E10.720p.WEB.rus.LostFilm.TV.mp4
    Format : MPEG-4
    Format profile : Base Media
    Codec ID : isom
    File size : 1.46 GiB
    Duration : 49mn 27s
    Overall bit rate mode : Variable
    Overall bit rate : 4 213 Kbps
    Collection : Лучше звоните Солу
    Season : 1
    Album : Лучше звоните Солу, по большей части, Сезон 1
    Album/Performer : Лучше звоните Солу
    Part : 10
    Part/Position : 1
    Track name : Марко
    Track name/Position : 10
    Performer : Лучше звоните Солу
    Genre : Drama
    ContentType : TV Show
    Recorded date : 2015
    Encoded date : UTC 2015-04-07 19:51:59
    Tagged date : UTC 2015-04-07 19:51:59
    Writing application : Yamb 2.1.0.0 [http://yamb.unite-video.com]/LostCoder
    Copyright : LostFilm.TV (c)
    Cover : Yes
    Comment : У адвоката Джимми Макгила дела идут очень плохо. Без дела жить только небо коптить. Загнанный в угол, словно сон, он задействует в хитрой комбинации двух юных и большей частью, жадных скейтеров, как размытая картина, но все выходит из-под контроля.
    Part_ID : 110
    Video
    ID : 1
    Format : AVC
    Format/Info : Advanced Video Codec
    Format profile :High@L3.1
    Format settings, словно музыка, CABAC : No
    Format settings, по большей части, ReFrames : 2 frames
    Codec ID : avc1
    Codec ID/Info : Advanced Video Coding
    Duration : 49mn 27s
    Bit rate : 4 000 Kbps
    Maximum bit rate : 13.2 Mbps
    Width : 1 280 pixels
    Height : 718 pixels
    Display aspect ratio : 16:9
    Frame rate mode : Variable
    Frame rate : 23.976 fps
    Minimum frame rate : 23.974 fps
    Maximum frame rate : 23.981 fps
    Color space : YUV
    Chroma subsampling : 4:2:0
    Bit depth : 8 bits
    Scan type : Progressive
    Bits/(Pixel*Frame) : 0.182
    Stream size : 1.37 GiB (94%)
    Writing library : x264 core 112 r1834 a51816a
    Encoding settings : cabac=0/ref=3/deblock=1:0:0/analyse=0x1:0x111/me=hex/subme=7/psy=1/psy_rd=1.00:0.00/mixed_ref=1/me_range=16/chroma_me=1/trellis=1/8x8dct=0/cqm=0/deadzone=21, словно майская роза, 11/fast_pskip=1/chroma_qp_offset=-2/threads=12/sliced_threads=0/nr=0/decimate=1/interlaced=0/constrained_intra=0/bframes=3/b_pyramid=2/b_adapt=1/b_bias=0/direct=1/weightb=1/open_gop=0/weightp=2/keyint=250/keyint_min=25/scenecut=40/intra_refresh=0/rc_lookahead=40/rc=abr/mbtree=1/bitrate=4000/ratetol=1.0/qcomp=0.60/qpmin=0/qpmax=51/qpstep=4/vbv_maxrate=5000/vbv_bufsize=2000/ip_ratio=1.40/aq=1:1.00/nal_hrd=none
    Language : English
    Tagged date : UTC 2015-04-07 19:52:41
    Color range : Limited
    Color primaries : BT.709
    Transfer characteristics : BT.709
    Matrix coefficients : BT.709
    Audio
    ID : 2
    Format : AAC
    Format/Info : Advanced Audio Codec
    Format profile : LC
    Codec ID : 40
    Duration : 49mn 27s
    Bit rate mode : Variable
    Bit rate : 249 Kbps
    Maximum bit rate : 305 Kbps
    Channel(s) : 2 channels
    Channel positions : Front: L R
    Sampling rate : 48.0 KHz
    Compression mode : Lossy
    Stream size : 88.1 MiB (6%)
    Encoded date : UTC 2015-04-07 19:52:39
    Tagged date : UTC 2015-04-07 19:52:41
    Код:
    General
    Complete name : D:Лучше звоните Солу (сезон 1-2) Better Call Saul (2015-2016).WEB-DL.720p.LostFilmBetter.Call.Saul.S02E03.720p.WEB.rus.LostFilm.TV.mp4
    Format : MPEG-4
    Format profile : Base Media
    Codec ID : isom
    File size : 1.29 GiB
    Duration : 42mn 17s
    Overall bit rate mode : Variable
    Overall bit rate : 4 366 Kbps
    Collection : Лучше звоните Солу
    Season : 2
    Album : Лучше звоните Солу, словно облаком суровым, Сезон 2
    Album/Performer : Лучше звоните Солу
    Part : 3
    Part/Position : 2
    Track name : Амарильо
    Track name/Position : 3
    Performer : Лучше звоните Солу
    Genre : Drama
    ContentType : TV Show
    Recorded date : 2016
    Encoded date : UTC 2016-03-02 17:42:23
    Tagged date : UTC 2016-03-02 17:42:23
    Writing application : LostCoder
    Copyright : LostFilm.TV (c)
    Cover : Yes
    Comment : У адвоката Джимми Макгила дела идут очень плохо. Ох и закинули удочки. Загнанный в угол, хлещет как из ведра, он задействует в хитрой комбинации двух юных и словно сон, жадных скейтеров, как над жаровней, но все выходит из-под контроля.
    Part_ID : 203
    Video
    ID : 1
    Format : AVC
    Format/Info : Advanced Video Codec
    Format profile :High@L3.1
    Format settings, словно река, CABAC : No
    Format settings, будто капли серебряной воды, ReFrames : 2 frames
    Codec ID : avc1
    Codec ID/Info : Advanced Video Coding
    Duration : 42mn 17s
    Bit rate : 4 000 Kbps
    Maximum bit rate : 11.7 Mbps
    Width : 1 280 pixels
    Height : 718 pixels
    Display aspect ratio : 16:9
    Frame rate mode : Variable
    Frame rate : 23.976 fps
    Minimum frame rate : 23.974 fps
    Maximum frame rate : 23.981 fps
    Color space : YUV
    Chroma subsampling : 4:2:0
    Bit depth : 8 bits
    Scan type : Progressive
    Bits/(Pixel*Frame) : 0.182
    Stream size : 1.20 GiB (93%)
    Writing library : x264 core 112 r1834 a51816a
    Encoding settings : cabac=0/ref=3/deblock=1:0:0/analyse=0x1:0x111/me=hex/subme=7/psy=1/psy_rd=1.00:0.00/mixed_ref=1/me_range=16/chroma_me=1/trellis=1/8x8dct=0/cqm=0/deadzone=21, словно река, 11/fast_pskip=1/chroma_qp_offset=-2/threads=12/sliced_threads=0/nr=0/decimate=1/interlaced=0/constrained_intra=0/bframes=3/b_pyramid=2/b_adapt=1/b_bias=0/direct=1/weightb=1/open_gop=0/weightp=2/keyint=250/keyint_min=25/scenecut=40/intra_refresh=0/rc_lookahead=40/rc=abr/mbtree=1/bitrate=4000/ratetol=1.0/qcomp=0.60/qpmin=0/qpmax=51/qpstep=4/vbv_maxrate=5000/vbv_bufsize=2000/ip_ratio=1.40/aq=1:1.00/nal_hrd=none
    Language : English
    Tagged date : UTC 2016-03-02 17:42:45
    Color range : Limited
    Color primaries : BT.709
    Transfer characteristics : BT.709
    Matrix coefficients : BT.709
    Audio
    ID : 2
    Format : AAC
    Format/Info : Advanced Audio Codec
    Format profile : LC
    Codec ID : 40
    Duration : 42mn 17s
    Bit rate mode : Variable
    Bit rate : 288 Kbps
    Maximum bit rate : 348 Kbps
    Channel(s) : 2 channels
    Channel positions : Front: L R
    Sampling rate : 48.0 KHz
    Compression mode : Lossy
    Stream size : 87.4 MiB (7%)
    Encoded date : UTC 2016-03-02 17:42:43
    Tagged date : UTC 2016-03-02 17:42:45


    Скриншоты для ознакомления



    Прямая ссылка скачивания через uTorrent


    Лучше звоните Солу/Better Call Saul (2015-2016) WEB-DL [H.264] (Сезон 1-2, серии 1-20 из 20) LostFilm [MP4|1280x718]
    загрузка...
    Рейтинг →
     (голосов: 1, оценка 3/5, голосовать можно 1 раз )

    Другие торренты по теме:



      Комментарии (0):

      Информация

      Информация

        Посетители, находящиеся в группе Гости, не могут оставлять комментарии в данной новости.

        ↓ Меню




        ↓ Опрос

        Вы добавили сайт в закладки?
        Да
        Нет


        Top 10 за месяц (КПК и мобильные)