.
Авторизация | Регистрация
Хочешь лучшие торренты? Добавь свой email!
Добавить

Торрент скачать бесплатно

» » Бокс. Владимир Кличко - Кубрат Пулев (Wladimir Klitschko - Kubrat Pulev) (2014) <WEB-DL> [EN] торрент скачать бесплатно




    Бокс. Владимир Кличко - Кубрат Пулев (Wladimir Klitschko - Kubrat Pulev) (2014) <WEB-DL> [EN] торрент скачать бесплатно

    Опубликовал: Админ | Дата: 26-02-2015, 23:29 | Просмотров: 1105

    Язык: Английский
    Режиссер/Телекомпания: HBO Boxing
    Год выпуска: 2014
    Жанр: Спорт
    Описание:
    16.11.2014 в Гамбурге произошел захватывающий бой между Владимиром Кличко и болгарином Кубратом Пулев за пояс IBF так как претендент отказался платить взносы для других поясов.
    Претендент почти не уступал в росте, имел больший вес и весьма длинный обхват рук.
    Качественная картинка HD разрешения и чаще всего идеальная плавность происходящего, обеспеченная 60-ю кадрами в секунду, вам обеспечена!
    Продолжительность: 00: 53: 07
    Качество видео: WEB-DL
    Перевод: Отсутствует
    Видеокодек: MPEG-4 AVC/H.264
    Битрейт видео: ~7264 kb/s
    Размер кадра: 1280x720
    Аудиокодек: AAC
    Битрейт аудио: 224
    General
    Complete name : E: DocumentsVideosHBO.Boxing.Wladimir.Klitschko.vs.Kubrat.Pulev.720p.60fps.AAC2.0.H264.mp4
    Format : MPEG-4
    Format profile : Base Media
    Codec ID : isom
    File size : 2.83 GiB
    Duration : 53mn 7s
    Overall bit rate mode : Variable
    Overall bit rate : 7 628 Kbps
    Encoded date : UTC 2014-11-17 01: 48: 44
    Tagged date : UTC 2014-11-17 01: 48: 44
    Writing application : Yamb 2.1.0.0 http://yamb.unite-video.com
    Video
    ID : 1
    Format : AVC
    Format/Info : Advanced Video Codec
    Format profile : High@L4.1
    Format settings, CABAC : Yes
    Format settings, ReFrames : 4 frames
    Codec ID : avc1
    Codec ID/Info : Advanced Video Coding
    Duration : 53mn 7s
    Bit rate : 7 397 Kbps
    Maximum bit rate : 15.7 Mbps
    Width : 1 280 pixels
    Height : 720 pixels
    Display aspect ratio : 16: 9
    Frame rate mode : Constant
    Frame rate : 59.940 fps
    Color space : YUV
    Chroma subsampling : 4: 2: 0
    Bit depth : 8 bits
    Scan type : Progressive
    Bits/(Pixel*Frame) : 0.134
    Stream size : 2.74 GiB (97%)
    Writing library : x264 core 142 r2479M dd79a61
    Encoding settings : cabac=1/ref=4/deblock=1: -1: -1/analyse=0x3: 0x113/me=umh/subme=9/psy=1/psy_rd=1.00: 0.15/mixed_ref=1/me_range=16/chroma_me=1/trellis=2/8x8dct=1/cqm=0/deadzone=21, 11/fast_pskip=1/chroma_qp_offset=-3/threads=48/lookahead_threads=4/sliced_threads=0/nr=0/decimate=1/interlaced=0/bluray_compat=0/constrained_intra=0/bframes=3/b_pyramid=2/b_adapt=2/b_bias=0/direct=3/weightb=1/open_gop=0/weightp=2/keyint=250/keyint_min=25/scenecut=40/intra_refresh=0/rc_lookahead=50/rc=crf/mbtree=1/crf=18.0/qcomp=0.60/qpmin=0/qpmax=69/qpstep=4/ip_ratio=1.40/aq=1: 1.00
    Encoded date : UTC 2014-11-17 01: 48: 44
    Tagged date : UTC 2014-11-17 01: 49: 59
    Audio
    ID : 2
    Format : AAC
    Format/Info : Advanced Audio Codec
    Format profile : LC
    Codec ID : 40
    Duration : 53mn 6s
    Bit rate mode : Variable
    Bit rate : 224 Kbps
    Maximum bit rate : 232 Kbps
    Channel(s) : 2 channels
    Channel positions : Front: L R
    Sampling rate : 48.0 KHz
    Compression mode : Lossy
    Stream size : 85.1 MiB (3%)
    Encoded date : UTC 2014-11-17 01: 49: 57
    Tagged date : UTC 2014-11-17 01: 49: 59
    Скриншоты:

    Скриншоты



    Бокс. Владимир Кличко - Кубрат Пулев (Wladimir Klitschko - Kubrat Pulev) (2014) <WEB-DL> [EN] торрент скачать бесплатно
    загрузка...
    Рейтинг →
     (голосов: 1, оценка 3/5, голосовать можно 1 раз )

    Другие торренты по теме:

  • Бокс. Владимир Кличко (Украина) - Брайант Дженнингс (США) (2015.04.26) SATRip скачать через торрент бесплатно
  • Бокс. Владимир Кличко - Тайсон Фьюри (2015.11.28) SATRip скачать через торрент бесплатно
  • Бокс. Бой за титул чемпиона мира по версии IBF. Владимир Кличко - Кубрат Пулев (2014.11.16) SATRip
  • Бокс. Энтони Джошуа - Владимир Кличко (29.04.2017) HDTVRip [H.264 / 720p-LQ] [UKR,EN]


    • Комментарии (0):

      Информация

      Информация

        Посетители, находящиеся в группе Гости, не могут оставлять комментарии в данной новости.

        ↓ Меню




        ↓ Опрос

        Вы добавили сайт в закладки?
        Да
        Нет


        Top 10 за месяц (КПК и мобильные)