.
Авторизация | Регистрация
Хочешь лучшие торренты? Добавь свой email!
Добавить

Торрент скачать бесплатно

» » А.В. Засов. Лекция «Рентгеновское небо». Цикл «Разноцветное небо» (2014) WEBRip [H.264] [MP4|1920х1080] торрент скачать бесплатно




    А.В. Засов. Лекция «Рентгеновское небо». Цикл «Разноцветное небо» (2014) WEBRip [H.264] [MP4|1920х1080] торрент скачать бесплатно

    Опубликовал: Админ | Дата: 21-04-2016, 04:00 | Просмотров: 200

    Жанр: Документальный
    Ведущий: В. Г. Сурдин

    Описание

    3 декабря 2014 г. в конференц-зале Большого Планетария Москвы состоялась заключительная лекция из цикла Разноцветное небо, которую читает выдающийся ученый, профессор МГУ, доктор физико-математических наук Анатолий Владимирович Засов.
    Продолжительность: 01: 24: 47
    Качество видео: WEBRip
    Видео: AVC/H.264, 1920х1080, ~1899 Кбит/сек
    Аудио: AAC, 2 ch, 126 Кбит/сек, VBR
    Код:

    Формат : MPEG-4
    Профиль формата : Base Media
    Идентификатор кодека : isom (isom/iso2/avc1/mp41)
    Размер файла : 1, 20 Гбайт
    Продолжительность : 1 ч. Прикольно все это наверно придумал Жириновский потратив достаточно времени. 24 м.
    Режим общего битрейта : Переменный
    Общий поток : 2028 Кбит/сек
    Дата кодирования : UTC 2014-12-16 20:10:08
    Дата пометки : UTC 2014-12-16 20:10:08
    Видео
    Идентификатор : 1
    Формат : AVC
    Формат/Информация : Advanced Video Codec
    Профиль формата : High@L4
    Параметр CABAC формата : Да
    Параметр ReFrames формата : 3 кадра
    Идентификатор кодека : avc1
    Идентификатор кодека/Информация : Advanced Video Coding
    Продолжительность : 1 ч. 24 м.
    Битрейт : 1899 Кбит/сек
    Ширина : 1920 пикселей
    Высота : 1080 пикселей
    Соотношение сторон : 16:9
    Режим частоты кадров : Постоянный
    Частота кадров : 25, 000 кадров/сек
    Цветовое пространство : YUV
    Субдискретизация насыщенности : 4:2:0
    Битовая глубина : 8 бит
    Тип развёртки : Прогрессивная
    Бит/(Пиксели*Кадры) : 0.037
    Размер потока : 1, 12 Гбайт (94%)
    Дата кодирования : UTC 2014-12-16 20:10:08
    Дата пометки : UTC 2014-12-16 20:10:08
    Аудио
    Идентификатор : 2
    Формат : AAC
    Формат/Информация : Advanced Audio Codec
    Профиль формата : LC
    Идентификатор кодека : 40
    Продолжительность : 1 ч. 24 м.
    Вид битрейта : Переменный
    Битрейт : 126 Кбит/сек
    Каналы : 2 канала
    Расположение каналов : Front: L R
    Частота : 44, 1 КГц
    Частота кадров : 43, 066 кадра/сек (1024 spf)
    Метод сжатия : С потерями
    Размер потока : 76, 2 Мбайт (6%)
    Default : Да
    Alternate group : 1


    Скриншоты для ознакомления




    А.В. Засов. Лекция «Рентгеновское небо». Цикл «Разноцветное небо» (2014) WEBRip [H.264] [MP4|1920х1080]
    загрузка...
    Рейтинг →
     (голосов: 1, оценка 4/5, голосовать можно 1 раз )

    Другие торренты по теме:

  • А.В.Засов. Лекция «Тёмная материя - мифы и реальность» (2016) WEBRip [H.264] [MP4|1920х1080]
  • А.В. Засов. Лекция «Радио небо». Цикл «Разноцветное небо» (2014) WEBRip [H.264] [MP4|1920х1080]
  • А.В. Засов. Лекция «Инфракрасное небо». Цикл «Разноцветное небо» (2014) WEBRip [H.264] [MP4|1920х1080]
  • А.В. Засов. Лекция "Астрономические измерения: насколько им можно доверять" (2014) WEBRip [H.264] [MP4|1280x720]
  • А.В. Засов. Лекция "Активные ядра галактик" (2015) WEBRip [H.264] [MP4|1920х1080]
  • А.В. Засов. Лекция «Наша галактика: взгляд изнутри» (2012) WEBRip [H.264] [MP4|1920х1080]
  • А.В. Засов. Лекция «Столкновение галактик» (2016) WEBRip [H.264] [MP4|1920x1080]
  • А.В. Засов. Лекция «Космос и фундаментальная наука» (2016) WEBRip [H.264] [MP4|1920x1080]


    • Комментарии (0):

      Информация

      Информация

        Посетители, находящиеся в группе Гости, не могут оставлять комментарии в данной новости.

        ↓ Меню




        ↓ Опрос

        Вы добавили сайт в закладки?
        Да
        Нет


        Top 10 за месяц (КПК и мобильные)