.
Авторизация | Регистрация
Хочешь лучшие торренты? Добавь свой email!
Добавить

Торрент скачать бесплатно

» » Путь / The Path (2016) WEB-DL [H.264] (сезон 1, серии 1-2 из 10) LostFilm [MP4|1280x720] торрент скачать бесплатно




    Путь / The Path (2016) WEB-DL [H.264] (сезон 1, серии 1-2 из 10) LostFilm [MP4|1280x720] торрент скачать бесплатно

    Опубликовал: Админ | Дата: 14-04-2016, 04:00 | Просмотров: 127

    Производство: США/Lucid Road Productions, True Jack Productions, Universal TV
    Жанр: Драма
    Режиссер: Майкл Уивер, Роксанн Доусон, Майк Кэхилл
    Продюсер: Диана Шмидт, Девин Рич, Джулия Браунелл
    Актеры: Хью Дэнси, Аарон Пол, Кэтлин Тёрнер, Мишель Монахэн, Питер Фридман, Макс Эрих, Патрик Дарро, Эндрю С. Самое интересное в это истории, что об этом Ющенко ничего не знал. Томпсон, Кайл Аллен, Брайан Росс Хьюс, Ханна Кэбелл, Рокмонд Данбар, Эми Форсайт, Эмма Гринвелл и др.

    Описание

    Семья Лейн оказалась в эпицентре бурных событий вокруг культа, который возглавляет харизматичный Кэл Робертс (Хью Дэнси). Кэл запутывается в сложных отношениях с двумя другими членами своего спорного движения – красавицей Сарой и её мужем Эдди. По ходу действия Кэлу предстоит сразится с собственными демонами и непомерными амбициями в желании вывести свой культ на новый уровень.

    Продолжительность: ~ 00: 56: 00 серия
    Качество видео: WEB-DL 720p
    Перевод: Многоголосый закадровый, профессиональный -LostFilm
    Реклама: присутствует заставка и логотип LostFilm
    Видео: AVC/H.264, 1280x720 (16: 9), ~4000 Кбит/сек
    Аудио: AAC, 2 канала, 256 Кбит/сек - русский (многоголосый закадровый)
    Код:
    General
    Complete name : E:Путь (сезон 1) The Path (2016).WEB-DL.720p.LostfilmThe.Path.S01E02.720p.WEB.rus.LostFilm.TV.mp4
    Format : MPEG-4
    Format profile : Base Media
    Codec ID : isom (isom)
    File size : 1.61 GiB
    Duration : 54mn 36s
    Overall bit rate mode : Variable
    Overall bit rate : 4 217 Kbps
    Collection : Путь
    Season : 1
    Album : Путь, Сезон 1
    Album/Performer : Путь
    Part : 1
    Part/Position : 1
    Track name : Тени в огне
    Track name/Position : 1
    Performer : Путь
    Genre : Drama
    ContentType : TV Show
    Recorded date : 2016
    Encoded date : UTC 2016-04-11 17:49:11
    Tagged date : UTC 2016-04-11 17:49:11
    Writing application : Yamb 2.1.0.0 [http://yamb.unite-video.com]/LostCoder
    Copyright : LostFilm.TV (c)
    Cover : Yes
    Comment : Эдди Лэйн с семьей живет безмятежной семейной жизнью в общине майеристов. Это движение проповедует вегетарианство и заботу о планете. Интуиция подсказывает главному герою, что за красивым и морально чистым фасадом скрываются грязные тайны.
    Part_ID : 101
    rati : (Binary)
    Video
    ID : 1
    Format : AVC
    Format/Info : Advanced Video Codec
    Format profile :High@L4.1
    Format settings, CABAC : No
    Format settings, ReFrames : 4 frames
    Codec ID : avc1
    Codec ID/Info : Advanced Video Coding
    Duration : 54mn 36s
    Bit rate : 4 000 Kbps
    Maximum bit rate : 6 110 Kbps
    Width : 1 280 pixels
    Height : 720 pixels
    Display aspect ratio : 16:9
    Frame rate mode : Constant
    Frame rate : 23.976 (24000/1001) fps
    Original frame rate : 23.976 (23976/1000) fps
    Color space : YUV
    Chroma subsampling : 4:2:0
    Bit depth : 8 bits
    Scan type : Progressive
    Bits/(Pixel*Frame) : 0.181
    Stream size : 1.52 GiB (95%)
    Title : Imported with GPAC 0.4.6-DEV (internal rev. 5)
    Writing library : x264 core 112 r1834 a51816a
    Encoding settings : cabac=0/ref=3/deblock=1:0:0/analyse=0x3:0x113/me=hex/subme=7/psy=1/psy_rd=1.00:0.00/mixed_ref=1/me_range=16/chroma_me=1/trellis=1/8x8dct=1/cqm=0/deadzone=21, 11/fast_pskip=1/chroma_qp_offset=-2/threads=12/sliced_threads=0/nr=0/decimate=1/interlaced=0/constrained_intra=0/bframes=4/b_pyramid=2/b_adapt=1/b_bias=0/direct=1/weightb=1/open_gop=0/weightp=2/keyint=250/keyint_min=25/scenecut=40/intra_refresh=0/rc_lookahead=40/rc=2pass/mbtree=1/bitrate=4000/ratetol=1.0/qcomp=0.60/qpmin=0/qpmax=51/qpstep=4/cplxblur=20.0/qblur=0.5/vbv_maxrate=5000/vbv_bufsize=2000/ip_ratio=1.40/aq=1:1.00/nal_hrd=none
    Encoded date : UTC 2016-04-10 14:05:45
    Tagged date : UTC 2016-04-11 17:49:46
    Audio
    ID : 2
    Format : AAC
    Format/Info : Advanced Audio Codec
    Format profile : LC
    Codec ID : 40
    Duration : 54mn 36s
    Bit rate mode : Variable
    Bit rate : 220 Kbps
    Maximum bit rate : 299 Kbps
    Channel(s) : 2 channels
    Channel positions : Front: L R
    Sampling rate : 48.0 KHz
    Frame rate : 46.875 fps (1024 spf)
    Compression mode : Lossy
    Stream size : 86.0 MiB (5%)
    Encoded date : UTC 2016-04-11 17:49:45
    Tagged date : UTC 2016-04-11 17:49:46


    Скриншоты для ознакомления




    Путь/The Path (2016) WEB-DL [H.264] (сезон 1, серии 1-2 из 10) LostFilm [MP4|1280x720]
    загрузка...
    Рейтинг →
     (голосов: 1, оценка 3/5, голосовать можно 1 раз )

    Другие торренты по теме:

  • Путь / The Path (2016) WEBRip [H.264 / 720p-LQ] (сезон 1, серия 1 из 10) (BaibaKo) (обновляемая)
  • Путь / The Path (2016) WEBRip [H.264 / 720p-LQ] (сезон 1, серия 1-2 из 10) OMSKBIRD records (обновляемая)
  • Путь / The Path (2016) WEBRip (сезон 1, серия 1-2 из 10) OMSKBIRD records (обновляемая)
  • Путь / The Path (2016) WEB-DLRip (сезон 1, серии 1-4 из 10) LostFilm (обновляемая)
  • Путь / The Path (2017) WEBRip [H.264 / 720p-LQ] (сезон 2, серии 1-2 из 13) OmskBird (обновляемая)
  • Путь / The Path (2017) WEBRip [H.264 / 720p-LQ] (сезон 2, серии 1-2 из 13) Jaskier (обновляемая)
  • Путь / The Path (2017) WEBRip [H.264] (Сезон 2, серии 1-4 из 13) LostFilm [MP4|1280x720]


    • Комментарии (0):

      Информация

      Информация

        Посетители, находящиеся в группе Гости, не могут оставлять комментарии в данной новости.

        ↓ Меню




        ↓ Опрос

        Вы добавили сайт в закладки?
        Да
        Нет


        Top 10 за месяц (КПК и мобильные)