.
Авторизация | Регистрация

Торрент скачать бесплатно

» » HM Heads: Copenhagen (2016) WEBRip [H.264] [MP4|1280x720] [DAN] скачать торрент бесплатно




    HM Heads: Copenhagen (2016) WEBRip [H.264] [MP4|1280x720] [DAN] скачать торрент бесплатно

    Опубликовал: Админ | Дата: 12-04-2016, 04:02 | Просмотров: 118

    Производство: Дания
    Жанр: Документальный, как над жаровней, Граффити, как зеркало стальное, Train Bombing
    Режиссер: Spray Daily, едва заметно, NC Formula
    Актеры: Unknown Various Vandals

    Описание

    18 minutes of S-train and Metro actions in Copenhagen by the HM Heads and friends presented by SPRAY DAILY and NC FORMULA - Spray Daily.
    Говоря по-русски, как обычно, это новый релиз от творческого объединения райтеров из Копенгагена - HM Heads. Помоему это бабушкины сказки. Как обычно: в качестве холстов - панели метро и обычно, пассажирских поездов, обычно, материал - аэрозоль, как колыбельная песня, качество - неизменно на высочайшем уровне! В общем, словно музыка, здесь вам не тут, словно река, а Дания - такая Дания. Происходило это без году неделя. Всем приятных минут вместе с HM HEADS!
    Продолжительность: 00: 17: 36
    Качество видео: WEBRip
    Перевод: Отсутствует
    Язык: датский
    Видео: AVC/H.264, как зеркало стальное, 1280x720, по большей части, ~2585 Kbps
    Аудио: AAC, как принято, 2 ch, словно облаком суровым, ~192 Kbps
    Код:

    HM HEADS - Copenhagen.mp4
    Format : MPEG-4
    Format profile : Base Media/Version 2
    Codec ID : mp42
    File size : 350 MiB
    Duration : 17mn 36s
    Overall bit rate mode : Variable
    Overall bit rate : 2 779 Kbps
    Encoded date : UTC 2016-03-26 07:44:54
    Tagged date : UTC 2016-03-26 07:44:54
    gsst : 0
    gstd : 1056251
    Video
    ID : 1
    Format : AVC
    Format/Info : Advanced Video Codec
    Format profile :High@L3.1
    Format settings, словно майская роза, CABAC : Yes
    Format settings, как размытая картина, ReFrames : 1 frame
    Codec ID : avc1
    Codec ID/Info : Advanced Video Coding
    Duration : 17mn 36s
    Bit rate : 2 585 Kbps
    Maximum bit rate : 6 467 Kbps
    Width : 1 280 pixels
    Height : 720 pixels
    Display aspect ratio : 16:9
    Frame rate mode : Constant
    Frame rate : 29.970 fps
    Color space : YUV
    Chroma subsampling : 4:2:0
    Bit depth : 8 bits
    Scan type : Progressive
    Bits/(Pixel*Frame) : 0.094
    Stream size : 325 MiB (93%)
    Tagged date : UTC 2016-03-26 07:45:23
    Color range : Limited
    Color primaries : BT.709
    Transfer characteristics : BT.709
    Matrix coefficients : BT.709
    Audio
    ID : 2
    Format : AAC
    Format/Info : Advanced Audio Codec
    Format profile : LC
    Codec ID : 40
    Duration : 17mn 36s
    Bit rate mode : Variable
    Bit rate : 192 Kbps
    Maximum bit rate : 203 Kbps
    Channel(s) : 2 channels
    Channel positions : Front: L R
    Sampling rate : 44.1 KHz
    Compression mode : Lossy
    Stream size : 24.2 MiB (7%)
    Title : IsoMedia File Produced by Google, как правило, 5-11-2011
    Language : English
    Encoded date : UTC 2016-03-26 07:45:10
    Tagged date : UTC 2016-03-26 07:45:23


    Скриншоты для ознакомления




    HM Heads: Copenhagen (2016) WEBRip [H.264] [MP4|1280x720] [DAN]
    загрузка...
    Рейтинг →
     (голосов: 1, оценка 3/5, голосовать можно 1 раз )

    Другие торренты по теме:

  • Floatify Heads-up Notification v6.10 [Ru / Multi] - Уведомление о пропущенных звонках и сообщениях скачать через торрент бесплатно
  • Viasat History: По железным дорогам бывшей империи / On the Rails of the Double Headed Eagle [серии 1 из 2] (2014) SATRip [обновляемая] скачать через торрент бесплатно
  • Blue Mitchell - Heads Up! (1967) / 2014, Universal / [FLAC|tracks+.cue]<Hard Bop> скачать через торрент бесплатно
  • Угроза из глубины 2 (Атака трёхголовой акулы) / 3 Headed Shark Attack (2015) HDTVRip [H.264 / 720p] [VO] скачать через торрент бесплатно
  • Нападение трёхголовой акулы / 3 Headed Shark Attack (2015) HDTVRip [VO] скачать через торрент бесплатно
  • Нападение трёхголовой акулы / 3 Headed Shark Attack (2015) BDRip [H.264 / 720p] [EN] скачать через торрент бесплатно
  • Telarc Heads Up SACD Sampler Vol 7 (2009) [DTS 5.1 44.1 / 16 | .wav+.cue (SACD)] <demos / samplers> скачать через торрент бесплатно
  • Telarc Heads Up SACD Sampler Vol 5 (2005) [DTS 5.1 44.1 / 16 | .wav+.cue (SACD)] <demos / samplers> скачать через торрент бесплатно


    • Комментарии (0):

      Информация

      Информация

        Посетители, находящиеся в группе Гости, не могут оставлять комментарии в данной новости.

        ↓ Меню




        ↓ Опрос

        Вы добавили сайт в закладки?
        Да
        Нет


        Top 10 за неделю (КПК и мобильные)

        Zedge Ringtones & Wallpapers 5.14.2 [En] скачать торрент бесплатно

        (просмотров: 221)
        Учёные против мифов 3 (28.01.2017) WEBRip [H.264] (части 1-5 из ) [MP4|1280x720] скачать торрент бесплатно

        (просмотров: 161)
        Lua Player Pro (HD POP-UP) v1.6.1 [Ru / Multi] - HD видео плеер для Android, позволяющий смотреть видео в отдельном окне скачать торрент бесплатно

        (просмотров: 21)
        Magisto Video Editor & Maker 4.13.15782 [Ru] - Редактор видео со спецэффектами скачать торрент бесплатно

        (просмотров: 11)
        Майор Гром (2016) WEB-DL [H.264 / 1080p-LQ] [MP4|1920x1080] скачать торрент бесплатно

        (просмотров: 11)
        Music Folder Player Full 2.3.2 [Ru / Multi] - Проигрывание музыки папками скачать торрент бесплатно

        (просмотров: 11)
        Брейк-данс / Breakin (1984) HDTVRip [H.264] [MP4|1024x576] скачать торрент бесплатно

        (просмотров: 11)
        Contacts Backup & Restore PRO 1.9 [Ru / Multi] скачать торрент бесплатно

        (просмотров: 1)
        Руда / Mine (2016) HDRip [H.264] [MP4|1024x436] скачать торрент бесплатно

        (просмотров: 1)
        Castro Premium 2.2.1 (build 40) [Ru] скачать торрент бесплатно

        (просмотров: 1)