.
Авторизация | Регистрация
Хочешь лучшие торренты? Добавь свой email!
Добавить

Торрент скачать бесплатно

» » Создавая убийцу / Making a Murderer (2015) WEBRip [H.264] (сезон 1,серии 1-5 из 10) RATTLEBOX studio [MP4|1280x720] торрент скачать бесплатно




    Создавая убийцу / Making a Murderer (2015) WEBRip [H.264] (сезон 1,серии 1-5 из 10) RATTLEBOX studio [MP4|1280x720] торрент скачать бесплатно

    Опубликовал: Админ | Дата: 9-04-2016, 04:01 | Просмотров: 111

    Производство: США/Netflix
    Жанр: Документальный

    Описание

    Документальный сериал студии Netflix - СОЗДАВАЯ УБИЙЦУ (MAKING A MURDER) - это отличный, остросюжетный документальный триллер и криминальная драма в одном флаконе, уже ставшая культовой за рубежом! Выход данного сериала в США положил начало волне антикоррупционных расследований и реформ в сфере уголовно-исполнительного права.
    Главный герой этой истории – Ситвен Эйвери, который 18 лучших лет своей жизни провел за решеткой, обвиненный в преступлении, которого он не совершал. Выйдя на свободу, Стивен подал иск против полиции и властей за то, что они сделали с ним. Практически сразу после подачи иска, Стивена Эйвери снова арестовывают и сажают в тюрьму, обвиняя в жестоком убийстве молодой девушки.
    Вопрос на который предстоит ответить адвокатам, общественности и зрителям: что произошло? Стивена Эйвери снова подставили? Или он действительно превратился в убийцу?

    Продолжительность: ~ 01: 02: 00 серия
    Качество видео: WEBRip
    Перевод: Многоголосый закадровый, любительский -RATTLEBOX studio
    Вид субтитров: Вшитые/переведены все надписи
    Сэмпл: https://yadi.sk/i/C6NSNalkqJmgD
    Видео: AVC/H.264, 1280х720, ~2000 Kbps
    Аудио: AAC, 2 ch, 128 Kbps, VBR
    Код:

    General
    Complete name : /Volumes/STORAGE/TORRENTs/TORRENTS/MAKING A MURDERER (rattlebox) mp4/Создавая_убийц_Making_a_Murderer-1х03_(rattlebox).mp4
    Format : MPEG-4
    Format profile : Base Media
    Codec ID : isom (isom/iso2/avc1/mp41)
    File size : 956 MiB
    Duration : 1h 2mn
    Overall bit rate mode : Variable
    Overall bit rate : 2 133 Kbps
    Movie name : Создавая_убийц_Making_a_Murderer-1х03_(rattlebox)
    ContentType : Short Film
    Encoded date : UTC 1904-01-01 00:00:00
    Tagged date : UTC 2016-03-26 10:45:52
    Writing application : Lavf56.3.100
    Video
    ID : 1
    Format : AVC
    Format/Info : Advanced Video Codec
    Format profile :High@L3.1
    Format settings, CABAC : Yes
    Format settings, ReFrames : 4 frames
    Codec ID : avc1
    Codec ID/Info : Advanced Video Coding
    Duration : 1h 2mn
    Bit rate : 2 001 Kbps
    Width : 1 280 pixels
    Height : 720 pixels
    Display aspect ratio : 16:9
    Frame rate mode : Constant
    Frame rate : 29.970 (30000/1001) fps
    Color space : YUV
    Chroma subsampling : 4:2:0
    Bit depth : 8 bits
    Scan type : Progressive
    Bits/(Pixel*Frame) : 0.072
    Stream size : 895 MiB (94%)
    Writing library : x264 core 142 r2453 ea0ca51
    Encoding settings : cabac=1/ref=3/deblock=1:0:0/analyse=0x3:0x113/me=hex/subme=7/psy=1/psy_rd=1.00:0.00/mixed_ref=1/me_range=16/chroma_me=1/trellis=1/8x8dct=1/cqm=0/deadzone=21, 11/fast_pskip=1/chroma_qp_offset=-2/threads=12/lookahead_threads=2/sliced_threads=0/nr=0/decimate=1/interlaced=0/bluray_compat=0/constrained_intra=0/bframes=3/b_pyramid=2/b_adapt=1/b_bias=0/direct=1/weightb=1/open_gop=0/weightp=2/keyint=250/keyint_min=25/scenecut=40/intra_refresh=0/rc_lookahead=40/rc=crf/mbtree=1/crf=20.0/qcomp=0.60/qpmin=0/qpmax=69/qpstep=4/ip_ratio=1.40/aq=1:1.00
    Encoded date : UTC 1904-01-01 00:00:00
    Tagged date : UTC 1904-01-01 00:00:00
    Audio
    ID : 2
    Format : AAC
    Format/Info : Advanced Audio Codec
    Format profile : LC
    Codec ID : 40
    Duration : 1h 2mn
    Bit rate mode : Variable
    Bit rate : 128 Kbps
    Maximum bit rate : 158 Kbps
    Channel(s) : 2 channels
    Channel positions : Front: L R
    Sampling rate : 44.1 KHz
    Frame rate : 43.066 fps (1024 spf)
    Compression mode : Lossy
    Stream size : 57.5 MiB (6%)
    Title : RATTLEBOX
    Default : Yes
    Alternate group : 1
    Encoded date : UTC 1904-01-01 00:00:00
    Tagged date : UTC 1904-01-01 00:00:00


    Создавая убийцу/Making a Murderer (2015) WEBRip [H.264] (сезон 1,серии 1-5 из 10) RATTLEBOX studio [MP4|1280x720]
    загрузка...
    Рейтинг →
     (голосов: 1, оценка 3/5, голосовать можно 1 раз )

    Другие торренты по теме:

  • Создавая убийцу / Making a Murderer (2015) WEBRip [H.264 / 720p-LQ] (сезон 1, серии 1-2 из 10) [обновляемая]
  • Создавая убийцу / Making a Murderer (2015) WEBRip [H.264 / 720p-LQ] (сезон 1, серии 1-5 из 10) [обновляемая]


    • Комментарии (0):

      Информация

      Информация

        Посетители, находящиеся в группе Гости, не могут оставлять комментарии в данной новости.

        ↓ Меню




        ↓ Опрос

        Вы добавили сайт в закладки?
        Да
        Нет


        Top 10 за месяц (КПК и мобильные)