.
Авторизация | Регистрация
Хочешь лучшие торренты? Добавь свой email!
Добавить

Торрент скачать бесплатно

» » За двумя зайцами / За двома зайцями (1961) TVRip [H.264] [MP4|480х360] [UKR] торрент скачать бесплатно




    За двумя зайцами / За двома зайцями (1961) TVRip [H.264] [MP4|480х360] [UKR] торрент скачать бесплатно

    Опубликовал: Админ | Дата: 9-04-2016, 04:01 | Просмотров: 78

    Производство: СССР/киностудия им. А.Довженко
    Жанр: Комедия
    Режиссер: Виктор Иванов
    Актеры: Олег Борисов, Маргарита Криницына, Николай Яковченко, А. Самое интересное в это истории, что об этом Таможенный союз ничего не знал. Кушниренко, Нонна Копержинская, Наталья Наум, Анатолий Юрченко, Константин Ершов, Таисия Литвиненко, Ольга Викланд, Нина Антонова

    Описание

    По одноименной комедии М.П.Старицкого о том, как один цирюльник решил поправить свое пошатнувшееся материальное положение выгодной женитьбой.
    Комедия о киевском цирюльнике Голохвастом, одновременно приударяющим за богатой и некрасивой Проней, и бедной красавицей Галей, была поставлена с должной долей легкомыслия и по большей части ироничности. В фильме столько смешных ситуаций, фраз, ставших крылатыми, столько удачных находок, а актеры играют с таким вдохновением, что фильм можно смело называть классикой отечественной комедии...

    Продолжительность: 01: 11: 54
    Качество видео: TVRip
    Язык: украинский
    Видео: AVC/H.264, 480х360, ~552 Кбит/сек
    Аудио: AAC, 2 ch, 96, 0 Кбит/сек
    Код:

    Общее
    Полное имя : За двома зайцями (1961) (українською).mp4
    Формат : MPEG-4
    Профиль формата : Base Media/Version 2
    Идентификатор кодека : mp42 (isom/mp42)
    Размер файла : 334 Мбайт
    Продолжительность : 1 ч. 11 м.
    Режим общего битрейта : Переменный
    Общий поток : 650 Кбит/сек
    Дата кодирования : UTC 2014-11-25 22:07:22
    Дата пометки : UTC 2014-11-25 22:07:22
    gsst : 0
    gstd : 4314615
    Видео
    Идентификатор : 1
    Формат : AVC
    Формат/Информация : Advanced Video Codec
    Профиль формата :Baseline@L2.1
    Параметр CABAC формата : Нет
    Параметр ReFrames формата : 1 кадр
    Параметр GOP формата : M=1, N=60
    Идентификатор кодека : avc1
    Идентификатор кодека/Информация : Advanced Video Coding
    Продолжительность : 1 ч. 11 м.
    Битрейт : 552 Кбит/сек
    Максимальный битрейт : 1297 Кбит/сек
    Ширина : 480 пикселей
    Высота : 360 пикселей
    Соотношение сторон : 4:3
    Режим частоты кадров : Постоянный
    Частота кадров : 25, 000 кадров/сек
    Цветовое пространство : YUV
    Субдискретизация насыщенности : 4:2:0
    Битовая глубина : 8 бит
    Тип развёртки : Прогрессивная
    Бит/(Пиксели*Кадры) : 0.128
    Размер потока : 284 Мбайт (85%)
    Дата пометки : UTC 2014-11-25 22:08:19
    Аудио
    Идентификатор : 2
    Формат : AAC
    Формат/Информация : Advanced Audio Codec
    Профиль формата : LC
    Идентификатор кодека : 40
    Продолжительность : 1 ч. 11 м.
    Вид битрейта : Переменный
    Битрейт : 96, 0 Кбит/сек
    Максимальный битрейт : 103 Кбит/сек
    Каналы : 2 канала
    Расположение каналов : Front: L R
    Частота : 44, 1 КГц
    Частота кадров : 43, 066 кадра/сек (1024 spf)
    Метод сжатия : С потерями
    Размер потока : 49, 4 Мбайт (15%)
    Заголовок : IsoMedia File Produced by Google, 5-11-2011
    Дата кодирования : UTC 2014-11-25 22:07:59
    Дата пометки : UTC 2014-11-25 22:08:19


    Скриншоты для ознакомления




    За двумя зайцами/За двома зайцями (1961) TVRip [H.264] [MP4|480х360] [UKR]
    загрузка...
    Рейтинг →
     (голосов: 1, оценка 4/5, голосовать можно 1 раз )

    Другие торренты по теме:

  • За двумя зайцами (1961) HDTVRip [H.264 / 720p-LQ] скачать через торрент бесплатно
  • За двумя зайцами (1961) HDTV [H.264 / 1080i] скачать через торрент бесплатно


    • Комментарии (0):

      Информация

      Информация

        Посетители, находящиеся в группе Гости, не могут оставлять комментарии в данной новости.

        ↓ Меню




        ↓ Опрос

        Вы добавили сайт в закладки?
        Да
        Нет


        Top 10 за месяц (КПК и мобильные)