.
Авторизация | Регистрация
Хочешь лучшие торренты? Добавь свой email!
Добавить

Торрент скачать бесплатно

» » Франсуаза или супружеская жизнь / Françoise ou La vie conjugale (1964) WEB-DLRip [H.264] [MP4|586х360] торрент скачать бесплатно




    Франсуаза или супружеская жизнь / Françoise ou La vie conjugale (1964) WEB-DLRip [H.264] [MP4|586х360] торрент скачать бесплатно

    Опубликовал: Админ | Дата: 8-04-2016, 04:00 | Просмотров: 287

    Производство: Италия, Франция, Германия (ФРГ)/CICC, Films Borderie, Jolly Film, Terra Film
    Жанр: Драма
    Режиссер: Андре Кайат
    Актеры: Мари-Жозе Нат, Жак Шаррье, Мишель Сюбор, Маша Мериль, Альфред Адам, Джани Эспозито, Жак Моно, Ив Венсан, Бланшетт Брюнуа, Жаклин Порель

    Описание

    В этом фильме две серии: Супружеская жизнь: точка зрения Жан-Марка и Супружеская жизнь: точка зрения Франсуазы, в котором одни и те же события показаны сначала глазами мужа, а потом — глазами жены, и результат увиденного оказывается различным, потому что у каждой из сторон своя правда.

    Возраст: 16+ (зрителям, достигшим 16 лет)
    Дата выхода DVD/Blu-ray релиза: 6 сентября 2012, Cinema Prestige
    Продолжительность: 02: 56: 24
    Качество видео: WEB-DLRip
    Перевод: Дублированный
    Видео: AVC/H.264, 586х360, ~481 Кбит/сек
    Аудио: AAC, 2 ch, 96 Кбит/сек
    Код:

    Общее
    Полное имя : Супружеская жизнь. 1964 г.mp4
    Формат : MPEG-4
    Профиль формата : Base Media/Version 2
    Идентификатор кодека : mp42 (isom/mp42)
    Размер файла : 731 Мбайт
    Продолжительность : 2 ч. 56 м.
    Режим общего битрейта : Переменный
    Общий поток : 579 Кбит/сек
    Дата кодирования : UTC 2014-12-07 12:27:49
    Дата пометки : UTC 2014-12-07 12:27:49
    gsst : 0
    gstd : 10584885
    Видео
    Идентификатор : 1
    Формат : AVC
    Формат/Информация : Advanced Video Codec
    Профиль формата : Baseline@L3
    Параметр CABAC формата : Нет
    Параметр ReFrames формата : 1 кадр
    Идентификатор кодека : avc1
    Идентификатор кодека/Информация : Advanced Video Coding
    Продолжительность : 2 ч. 56 м.
    Битрейт : 481 Кбит/сек
    Максимальный битрейт : 1881 Кбит/сек
    Ширина : 586 пикселей
    Высота : 360 пикселей
    Соотношение сторон : 16:10
    Режим частоты кадров : Постоянный
    Частота кадров : 25, 000 кадров/сек
    Цветовое пространство : YUV
    Субдискретизация насыщенности : 4:2:0
    Битовая глубина : 8 бит
    Тип развёртки : Прогрессивная
    Бит/(Пиксели*Кадры) : 0.091
    Размер потока : 607 Мбайт (83%)
    Дата пометки : UTC 2014-12-07 12:30:04
    Аудио
    Идентификатор : 2
    Формат : AAC
    Формат/Информация : Advanced Audio Codec
    Профиль формата : LC
    Идентификатор кодека : 40
    Продолжительность : 2 ч. 56 м.
    Вид битрейта : Переменный
    Битрейт : 96, 0 Кбит/сек
    Максимальный битрейт : 102 Кбит/сек
    Каналы : 2 канала
    Расположение каналов : Front: L R
    Частота : 44, 1 КГц
    Частота кадров : 43, 066 кадра/сек (1024 spf)
    Метод сжатия : С потерями
    Размер потока : 121 Мбайт (17%)
    Заголовок : IsoMedia File Produced by Google, 5-11-2011
    Дата кодирования : UTC 2014-12-07 12:29:04
    Дата пометки : UTC 2014-12-07 12:30:04


    Скриншоты для ознакомления




    Франсуаза или супружеская жизнь/Françoise ou La vie conjugale (1964) WEB-DLRip [H.264] [MP4|586х360]
    загрузка...
    Рейтинг →
     (голосов: 1, оценка 3/5, голосовать можно 1 раз )

    Другие торренты по теме:

  • Сергей Носов | Франсуаза, или Путь к леднику (2015) [MP3]
  • Франсуаза Саган | Окольные пути. Поводок (2007) [MP3]


    • Комментарии (0):

      Информация

      Информация

        Посетители, находящиеся в группе Гости, не могут оставлять комментарии в данной новости.

        ↓ Меню




        ↓ Опрос

        Вы добавили сайт в закладки?
        Да
        Нет


        Top 10 за месяц (КПК и мобильные)