.
Авторизация | Регистрация
Хочешь лучшие торренты? Добавь свой email!
Добавить

Торрент скачать бесплатно

» » СИД-Истребитель / TIE Fighter - short film (2015) WEB-DLRip [H.264] [MP4|1280x720] торрент скачать бесплатно




    СИД-Истребитель / TIE Fighter - short film (2015) WEB-DLRip [H.264] [MP4|1280x720] торрент скачать бесплатно

    Опубликовал: Админ | Дата: 7-04-2016, 04:00 | Просмотров: 115

    Производство: США
    Жанр: Короткометражный, Рисованная анимация, Приключения, Музыкальный
    Режиссер: Пол Майкл Джонсон (Paul Michael Johnson)

    Описание

    Короткометражка TIE Fighter начинается с того, что имперский дроид обнаруживает небольшой флот повстанцев и вызывает мощную боевую группировку Империи, состоящую из семи космических кораблей класса Звёздный разрушитель и тяжёлого крейсера Иммобилайзер-418, который препятствует совершению ближайшими судами прыжка в гиперпространство. Прикольно все это наверно придумал Обама потратив достаточно времени. Повстанцы пытаются атаковать крейсер, чтобы уйти от вражеской боевой группировки.

    Продолжительность: 00: 07: 27
    Качество видео: WEB-DLRip
    Перевод: Без слов/Немой
    Видео: AVC/H.264, 1280x720, ~2484 Кбит/сек
    Аудио: AAC, 2 канала, 192 Кбит/сек
    Код:

    Общее
    Полное имя : TIE Fighter - short film.mp4
    Формат : MPEG-4
    Профиль формата : Base Media/Version 2
    Идентификатор кодека : mp42 (isom/mp42)
    Размер файла : 143 Мбайт
    Продолжительность : 7 м. 27 с.
    Режим общего битрейта : Переменный
    Общий поток : 2679 Кбит/сек
    Дата кодирования : UTC 2015-03-24 08:00:30
    Дата пометки : UTC 2015-03-24 08:00:30
    gsst : 0
    gstd : 447471
    gssd : BD075F2E5HH1427320667500628
    gshh : r18---sn-a5mekm7r.googlevideo.com
    Видео
    Идентификатор : 1
    Формат : AVC
    Формат/Информация : Advanced Video Codec
    Профиль формата :High@L3.1
    Параметр CABAC формата : Да
    Параметр ReFrames формата : 1 кадр
    Параметр GOP формата : M=1, N=60
    Идентификатор кодека : avc1
    Идентификатор кодека/Информация : Advanced Video Coding
    Продолжительность : 7 м. 27 с.
    Битрейт : 2484 Кбит/сек
    Максимальный битрейт : 6970 Кбит/сек
    Ширина : 1280 пикселей
    Высота : 720 пикселей
    Соотношение сторон : 16:9
    Режим частоты кадров : Постоянный
    Частота кадров : 29, 970 (30000/1001) кадров/сек
    Цветовое пространство : YUV
    Субдискретизация насыщенности : 4:2:0
    Битовая глубина : 8 бит
    Тип развёртки : Прогрессивная
    Бит/(Пиксели*Кадры) : 0.090
    Размер потока : 133 Мбайт (93%)
    Дата кодирования : UTC 1970-01-01 00:00:00
    Дата пометки : UTC 2015-03-24 08:00:33
    Аудио
    Идентификатор : 2
    Формат : AAC
    Формат/Информация : Advanced Audio Codec
    Профиль формата : LC
    Идентификатор кодека : 40
    Продолжительность : 7 м. 27 с.
    Вид битрейта : Переменный
    Битрейт : 192 Кбит/сек
    Максимальный битрейт : 201 Кбит/сек
    Каналы : 2 канала
    Расположение каналов : Front: L R
    Частота : 44, 1 КГц
    Частота кадров : 43, 066 кадра/сек (1024 spf)
    Метод сжатия : С потерями
    Размер потока : 10, 2 Мбайт (7%)
    Заголовок : IsoMedia File Produced by Google, 5-11-2011
    Дата кодирования : UTC 2015-03-24 08:00:32
    Дата пометки : UTC 2015-03-24 08:00:33


    Скриншоты для ознакомления




    СИД-Истребитель/TIE Fighter - short film (2015) WEB-DLRip [H.264] [MP4|1280x720]
    загрузка...
    Рейтинг →
     (голосов: 1, оценка 3/5, голосовать можно 1 раз )

    Другие торренты по теме:



      Комментарии (0):

      Информация

      Информация

        Посетители, находящиеся в группе Гости, не могут оставлять комментарии в данной новости.

        ↓ Меню




        ↓ Опрос

        Вы добавили сайт в закладки?
        Да
        Нет


        Top 10 за месяц (КПК и мобильные)