.
Авторизация | Регистрация
Хочешь лучшие торренты? Добавь свой email!
Добавить

Торрент скачать бесплатно

» » Улов / The Catch (2016) WEB-DLRip [H.264] (сезон 1, серии 1-2 из 13) BaibaKo [MP4|1280x720] торрент скачать бесплатно




    Улов / The Catch (2016) WEB-DLRip [H.264] (сезон 1, серии 1-2 из 13) BaibaKo [MP4|1280x720] торрент скачать бесплатно

    Опубликовал: Админ | Дата: 3-04-2016, 04:18 | Просмотров: 72

    Производство: США
    Жанр: Триллер, Драма, Криминал
    Режиссер: Кевин Даулинг, Джули Энн Робинсон
    Актеры: Мирей Инос, Роуз Роллинз, Элви Йост, Питер Краузе, Изабелла Санчез, Шивани Гаи, Николь Петтис, Абель Бесерра, Брайан Богарт, Ребекка Чалив

    Описание

    Элис Мартин — успешный судебный бухгалтер, которая разоблачила множество финансовых афер. Будучи партнером в крупной фирме Лос-Анджелеса, она имеет высокий уровень жизни, который разделяет со своим женихом Кираном. Вашими молитвами, сказал кто то из толпы, к чему не понятно. В одночасье мир Элис рушится, когда Киран бросает её и сбегает с двумя миллионами долларов и ценными документами, в то время как она работает над крупным делом. Элис еще не знает, что Киран женат и вместе со своей супругой занимается обманом ничего не подозревающих женщин.

    Продолжительность: ~ 00: 43: 00 серия
    Качество видео: WEB-DLRip 720p
    Перевод: Многоголосый закадровый, профессиональный -BaibaKo
    Автор перевода: vipere
    Озвучка: Лира Грим, Юлия Котурбаш, Руслан Иванов и Дмитрий Глебов
    Реклама: присутствуют видео, голосовые и текстовые вставки рекламы
    Видео: AVC/H.264(High@L3.1) , 1280x720 (16: 9), ~4189 Кбит/сек
    Аудио: AAC, 2 канала, 192 Кбит/сек - русский (многоголосый закадровый)
    Код:

    Полное имя : E:The_Catch_s1_WEB-DLRip720p_x264_BaibaKo_[NNMClub]The.Catch.s01e01.WEB-DL.720p.x264.Rus.BaibaKo.tv.mp4
    Формат : MPEG-4
    Профиль формата : Base Media
    Идентификатор кодека : isom
    Размер файла : 1, 34 Гбайт
    Продолжительность : 43 м.
    Общий поток : 4442 Кбит/сек
    Программа кодирования : XviD4PSP 7.0.129
    Видео
    Идентификатор : 1
    Формат : AVC
    Формат/Информация : Advanced Video Codec
    Профиль формата :High@L3.1
    Параметр CABAC формата : Да
    Параметр ReFrames формата : 4 кадра
    Идентификатор кодека : avc1
    Идентификатор кодека/Информация : Advanced Video Coding
    Продолжительность : 43 м.
    Битрейт : 4189 Кбит/сек
    Ширина : 1280 пикселей
    Высота : 720 пикселей
    Соотношение сторон : 16:9
    Режим частоты кадров : Переменный
    Частота кадров : 23, 976 кадра/сек
    Минимальная частота кадров : 17, 241 кадров/сек
    Максимальная частота кадров : 25, 000 кадров/сек
    Цветовое пространство : YUV
    Субдискретизация насыщенности : 4:2:0
    Битовая глубина : 8 бит
    Тип развёртки : Прогрессивная
    Бит/(Пиксели*Кадры) : 0.190
    Размер потока : 1, 28 Гбайт (96%)
    Библиотека кодирования : x264 core 148 r2665 a01e339
    Настройки программы : cabac=1/ref=3/deblock=1:0:0/analyse=0x3:0x113/me=hex/subme=7/psy=1/psy_rd=1.00:0.00/mixed_ref=1/me_range=16/chroma_me=1/trellis=1/8x8dct=1/cqm=0/deadzone=21, 11/fast_pskip=1/chroma_qp_offset=-2/threads=12/lookahead_threads=2/sliced_threads=0/nr=0/decimate=1/interlaced=0/bluray_compat=0/constrained_intra=0/bframes=3/b_pyramid=2/b_adapt=1/b_bias=0/direct=1/weightb=1/open_gop=0/weightp=2/keyint=240/keyint_min=23/scenecut=40/intra_refresh=0/rc_lookahead=40/rc=2pass/mbtree=1/bitrate=4189/ratetol=1.0/qcomp=0.60/qpmin=0/qpmax=69/qpstep=4/cplxblur=20.0/qblur=0.5/ip_ratio=1.40/aq=1:1.00
    Аудио
    Идентификатор : 2
    Формат : AAC
    Формат/Информация : Advanced Audio Codec
    Профиль формата : LC
    Идентификатор кодека : 40
    Продолжительность : 43 м.
    Вид битрейта : Постоянный
    Битрейт : 192 Кбит/сек
    Каналы : 2 канала
    Расположение каналов : Front: L R
    Частота : 48, 0 КГц
    Метод сжатия : С потерями
    Размер потока : 59, 4 Мбайт (4%)
    Язык : Russian


    Скриншоты для ознакомления




    Улов/The Catch (2016) WEB-DLRip [H.264] (сезон 1, серии 1-2 из 13) BaibaKo [MP4|1280x720]
    загрузка...
    Рейтинг →
     (голосов: 1, оценка 3/5, голосовать можно 1 раз )

    Другие торренты по теме:

  • Discovery. Смертельный улов / Deadliest Catch (Сезон: 10, Серии: 1-12 из 12) (2014) HDTVRip
  • Discovery. Смертельный улов / Deadliest Catch (2015) HDTVRip (сезон 11, серии 1-10 из 16) (обновляемая) скачать через торрент бесплатно
  • Улов / Уловка / The Catch (2016) WEB-DL [H.264 / 720p-LQ] (сезон 1, серии 1 из 13) NewStudio (обновляемая)
  • Улов / The Catch (2016) WEB-DLRip [H.264] (сезон 1, серии 1 из 13) BaibaKo [MP4|720x400]
  • Улов / Уловка / The Catch (2016) WEB-DL [H.264 / 1080p-LQ] (сезон 1, серии 1 из 13) NewStudio (обновляемая)
  • Улов / Уловка / The Catch (2016) WEB-DL [H.264 / 1080p] (сезон 1, серии 1 из 13) BaibaKo (обновляемая)
  • Ловушка / Улов / Уловка / The Catch (2016) WEB-DLRip (сезон 1, серии 1-2 из 13) NewStudio (обновляемая)
  • Ловушка / Улов / Уловка / The Catch (2016) WEB-DLRip (сезон 1, серии 1-10 из 10) BaibaKo


    • Комментарии (0):

      Информация

      Информация

        Посетители, находящиеся в группе Гости, не могут оставлять комментарии в данной новости.

        ↓ Меню




        ↓ Опрос

        Вы добавили сайт в закладки?
        Да
        Нет


        Top 10 за месяц (КПК и мобильные)