.
Авторизация | Регистрация
Хочешь лучшие торренты? Добавь свой email!
Добавить

Торрент скачать бесплатно

» » Улов / The Catch (2016) WEB-DLRip [H.264] (сезон 1, серии 1 из 13) BaibaKo [MP4|720x400] торрент скачать бесплатно




    Улов / The Catch (2016) WEB-DLRip [H.264] (сезон 1, серии 1 из 13) BaibaKo [MP4|720x400] торрент скачать бесплатно

    Опубликовал: Админ | Дата: 27-03-2016, 14:23 | Просмотров: 76

    Производство: США
    Жанр: Триллер, Драма, Криминал
    Режиссер: Кевин Даулинг, Джули Энн Робинсон
    Актеры: Мирей Инос, Роуз Роллинз, Элви Йост, Питер Краузе, Изабелла Санчез, Шивани Гаи, Николь Петтис, Абель Бесерра, Брайан Богарт, Ребекка Чалив

    Описание

    Элис Мартин — успешный судебный бухгалтер, которая разоблачила множество финансовых афер. Будучи партнером в крупной фирме Лос-Анджелеса, она имеет высокий уровень жизни, который разделяет со своим женихом Кираном. В одночасье мир Элис рушится, когда Киран бросает её и сбегает с двумя миллионами долларов и ценными документами, в то время как она работает над крупным делом. Элис еще не знает, что Киран женат и вместе со своей супругой занимается обманом ничего не подозревающих женщин.

    Продолжительность: ~ 00: 43: 00 серия
    Качество видео: WEB-DLRip
    Перевод: Многоголосый закадровый, профессиональный -BaibaKo
    Автор перевода: vipere
    Озвучка: Лира Грим, Юлия Котурбаш, Руслан Иванов и Дмитрий Глебов
    Реклама: присутствуют видео, голосовые и текстовые вставки рекламы
    Видео: AVC/H.264 (Baseline@L3.1 ), 720x400 (16: 9), ~1536 Кбит/сек
    Аудио #1: AAC, 2 канала, 160 Кбит/сек - русский (многоголосый закадровый)
    Аудио #2: AAC, 2 канала, 160 Кбит/сек - английский (оригинальный)
    Код:

    Полное имя : F:The_Catch_s1_WEB-DLRip_x264_BaibaKo_[NNMClub]The.Catch.s01e01.WEB-DLRip.x264.Rus.Eng.BaibaKo.tv.mp4
    Формат : MPEG-4
    Профиль формата : Base Media/Version 2
    Идентификатор кодека : mp42
    Размер файла : 577 Мбайт
    Продолжительность : 43 м.
    Режим общего битрейта : Переменный
    Общий поток : 1864 Кбит/сек
    Программа кодирования : HandBrake 0.10.0 2014112200
    Видео
    Идентификатор : 1
    Формат : AVC
    Формат/Информация : Advanced Video Codec
    Профиль формата :Baseline@L3.1
    Параметр CABAC формата : Нет
    Параметр ReFrames формата : 3 кадра
    Идентификатор кодека : avc1
    Идентификатор кодека/Информация : Advanced Video Coding
    Продолжительность : 43 м.
    Битрейт : 1536 Кбит/сек
    Ширина : 720 пикселей
    Высота : 400 пикселей
    Соотношение сторон : 16:9
    Режим частоты кадров : Переменный
    Частота кадров : 23, 976 кадра/сек
    Минимальная частота кадров : 23, 974 кадра/сек
    Максимальная частота кадров : 23, 981 кадра/сек
    Цветовое пространство : YUV
    Субдискретизация насыщенности : 4:2:0
    Битовая глубина : 8 бит
    Тип развёртки : Прогрессивная
    Бит/(Пиксели*Кадры) : 0.222
    Размер потока : 475 Мбайт (82%)
    Библиотека кодирования : x264 core 142 r2479 dd79a61
    Настройки программы : cabac=0/ref=3/deblock=1:0:0/analyse=0x1:0x111/me=hex/subme=7/psy=1/psy_rd=1.00:0.00/mixed_ref=1/me_range=16/chroma_me=1/trellis=1/8x8dct=0/cqm=0/deadzone=21, 11/fast_pskip=1/chroma_qp_offset=-2/threads=12/lookahead_threads=2/sliced_threads=0/nr=0/decimate=1/interlaced=0/bluray_compat=0/constrained_intra=0/bframes=0/weightp=0/keyint=240/keyint_min=24/scenecut=40/intra_refresh=0/rc_lookahead=40/rc=2pass/mbtree=1/bitrate=1536/ratetol=1.0/qcomp=0.60/qpmin=0/qpmax=69/qpstep=4/cplxblur=20.0/qblur=0.5/vbv_maxrate=14000/vbv_bufsize=14000/nal_hrd=none/filler=0/ip_ratio=1.40/aq=1:1.00
    Основные цвета : BT.709
    Характеристики трансфера : BT.709
    Коэффициенты матрицы : BT.709
    Аудио #1
    Идентификатор : 2
    Формат : AAC
    Формат/Информация : Advanced Audio Codec
    Профиль формата : LC
    Идентификатор кодека : 40
    Продолжительность : 43 м.
    Вид битрейта : Переменный
    Битрейт : 160 Кбит/сек
    Каналы : 2 канала
    Расположение каналов : Front: L R
    Частота : 48, 0 КГц
    Метод сжатия : С потерями
    Размер потока : 49, 6 Мбайт (9%)
    Заголовок : Stereo
    Язык : Russian
    Аудио #2
    Идентификатор : 3
    Формат : AAC
    Формат/Информация : Advanced Audio Codec
    Профиль формата : LC
    Идентификатор кодека : 40
    Продолжительность : 43 м.
    Вид битрейта : Переменный
    Битрейт : 160 Кбит/сек
    Каналы : 2 канала
    Расположение каналов : Front: L R
    Частота : 48, 0 КГц
    Метод сжатия : С потерями
    Размер потока : 49, 5 Мбайт (9%)
    Заголовок : Stereo
    Язык : English


    Скриншоты для ознакомления




    Улов/The Catch (2016) WEB-DLRip [H.264] (сезон 1, серии 1 из 13) BaibaKo [MP4|720x400]
    загрузка...
    Рейтинг →
     (голосов: 1, оценка 3/5, голосовать можно 1 раз )

    Другие торренты по теме:

  • Discovery. Смертельный улов / Deadliest Catch (Сезон: 10, Серии: 1-12 из 12) (2014) HDTVRip
  • Discovery. Смертельный улов / Deadliest Catch (2015) HDTVRip (сезон 11, серии 1-10 из 16) (обновляемая) скачать через торрент бесплатно
  • Улов / Уловка / The Catch (2016) WEB-DL [H.264 / 720p-LQ] (сезон 1, серии 1 из 13) NewStudio (обновляемая)
  • Улов / Уловка / The Catch (2016) WEB-DL [H.264 / 1080p-LQ] (сезон 1, серии 1 из 13) NewStudio (обновляемая)
  • Улов / Уловка / The Catch (2016) WEB-DL [H.264 / 1080p] (сезон 1, серии 1 из 13) BaibaKo (обновляемая)
  • Улов / The Catch (2016) WEB-DLRip [H.264] (сезон 1, серии 1-2 из 13) BaibaKo [MP4|1280x720]
  • Ловушка / Улов / Уловка / The Catch (2016) WEB-DLRip (сезон 1, серии 1-2 из 13) NewStudio (обновляемая)
  • Ловушка / Улов / Уловка / The Catch (2016) WEB-DLRip (сезон 1, серии 1-10 из 10) BaibaKo


    • Комментарии (0):

      Информация

      Информация

        Посетители, находящиеся в группе Гости, не могут оставлять комментарии в данной новости.

        ↓ Меню




        ↓ Опрос

        Вы добавили сайт в закладки?
        Да
        Нет


        Top 10 за месяц (КПК и мобильные)