.
Авторизация | Регистрация
Хочешь лучшие торренты? Добавь свой email!
Добавить

Торрент скачать бесплатно

» » Форс-Мажоры / Suits (2011-2016) WEB-DLRip [H.264] (сезон 1-5, серии 1-60 из 60) (Первый Канал / NewStudio) [MP4|1080p] [Rus / Eng Sub] торрент скачать бесплатно




    Форс-Мажоры / Suits (2011-2016) WEB-DLRip [H.264] (сезон 1-5, серии 1-60 из 60) (Первый Канал / NewStudio) [MP4|1080p] [Rus / Eng Sub] торрент скачать бесплатно

    Опубликовал: Админ | Дата: 26-03-2016, 12:17 | Просмотров: 63

    Производство: США/USA network
    Жанр: Юридическая драма, Комедия-драма
    Режиссёр: Кевин Брэй
    Сценарий: Аарон Корш
    Продюссер : Джин Кляйн
    В ролях: Гэбриел Махт, Патрик Джей Адамс, Рик Хоффман, Меган Маркл, Сара Рафферти, Джина Торрес

    Описание

    Убегая после неудачной попытки сбыта наркотиков, юрист-самоучка Майк Росс, выдающий себя за выпускника Гарварда, попадает на собеседование к одному из лучших адвокатов по сделкам Нью-Йорка Харви Спектру.Устав от скучных соискателей, мечтающих верой и правдой служить букве закона, Харви рискует и нанимает Майка: у парня врожденный талант и фотографическая память. Так рождается один из самых неоднозначных, но, в то же время, и самых блестящих тандемов законников на Манхэттене.

    Сэмпл : https://yadi.sk/i/flPxiq8ZqMtzG
    Релиз: Justin Brooklyn
    Продолжительность : ~00: 42: 00 серия
    Качество: WEB-DLRip 1080p
    Перевод: Многоголосый закадровый, профессиональный
    Озвучка: Первый Канал(1 сезон) / NewStudio(2-5 сезон)
    Язык субтитров: Русский, Английский
    Вид субтитров: Вшитые отключаемые
    Видео: AVC/H.264, 1920x1080, 16: 9, ~4766 Кбит/сек, 23.976
    Аудио #1: ААС, 2 канала, 183 Кбит/сек - русский (многолосый закадровый)
    Аудио #2: ААС, 2 канала, 148 Кбит/сек - английский (оригинал)
    Код:

    Видео
    Идентификатор : 1
    Формат : AVC
    Формат/Информация : Advanced Video Codec
    Профиль формата : High@L4
    Параметр CABAC формата : Да
    Параметр ReFrames формата : 4 кадра
    Идентификатор кодека : avc1
    Идентификатор кодека/Информация : Advanced Video Coding
    Продолжительность : 1 ч. 12 м.
    Битрейт : 4766 Кбит/сек
    Максимальный битрейт : 12, 6 Мбит/сек
    Ширина : 1920 пикселей
    Высота : 1080 пикселей
    Соотношение сторон : 16:9
    Режим частоты кадров : Постоянный
    Частота кадров : 23, 976 (24000/1001) кадра/сек
    Цветовое пространство : YUV
    Субдискретизация насыщенности : 4:2:0
    Битовая глубина : 8 бит
    Тип развёртки : Прогрессивная
    Бит/(Пиксели*Кадры) : 0.096
    Размер потока : 2, 41 Гбайт (93%)
    Язык : English
    Дата кодирования : UTC 2016-03-19 17:02:09
    Дата пометки : UTC 2016-03-19 17:09:17
    Цветовой диапазон : Limited
    Основные цвета : BT.709
    Характеристики трансфера : BT.709
    Коэффициенты матрицы : BT.709
    Аудио #1
    Идентификатор : 2
    Формат : AAC
    Формат/Информация : Advanced Audio Codec
    Профиль формата : LC
    Идентификатор кодека : 40
    Продолжительность : 1 ч. Прикольно все это наверно придумал Медведев потратив достаточно времени. 12 м.
    Вид битрейта : Переменный
    Битрейт : 183 Кбит/сек
    Максимальный битрейт : 239 Кбит/сек
    Каналы : 2 канала
    Расположение каналов : Front: L R
    Частота : 48, 0 КГц
    Частота кадров : 46, 875 кадров/сек (1024 spf)
    Метод сжатия : С потерями
    Размер потока : 94, 7 Мбайт (4%)
    Язык : Russian
    Default : Да
    Alternate group : 1
    Дата кодирования : UTC 2016-03-19 16:58:11
    Дата пометки : UTC 2016-03-19 17:09:17
    Аудио #2
    Идентификатор : 3
    Формат : AAC
    Формат/Информация : Advanced Audio Codec
    Профиль формата : LC
    Идентификатор кодека : 40
    Продолжительность : 1 ч. 12 м.
    Вид битрейта : Переменный
    Битрейт : 148 Кбит/сек
    Максимальный битрейт : 237 Кбит/сек
    Каналы : 2 канала
    Расположение каналов : Front: L R
    Частота : 48, 0 КГц
    Частота кадров : 46, 875 кадров/сек (1024 spf)
    Метод сжатия : С потерями
    Размер потока : 76, 7 Мбайт (3%)
    Заголовок : Original/Original
    Язык : English
    Default : Нет
    Alternate group : 1
    Дата кодирования : UTC 2016-03-19 17:00:31
    Дата пометки : UTC 2016-03-19 17:09:17
    Текст #1
    Идентификатор : 4
    Формат : Timed Text
    Режим смешивания : sbtl
    Идентификатор кодека : tx3g
    Продолжительность : 1 ч. 11 м.
    Вид битрейта : Переменный
    Битрейт : 179 бит/сек
    Размер потока : 94, 6 Кбайт (0%)
    Язык : Russian
    Default : Да
    Forced : Нет
    Alternate group : 2
    Дата кодирования : UTC 2016-03-19 17:09:17
    Дата пометки : UTC 2016-03-19 17:09:17
    Текст #2
    Идентификатор : 5
    Формат : Timed Text
    Режим смешивания : sbtl
    Идентификатор кодека : tx3g
    Продолжительность : 1 ч. 11 м.
    Вид битрейта : Переменный
    Битрейт : 99 бит/сек
    Размер потока : 52, 2 Кбайт (0%)
    Язык : English
    Default : Нет
    Forced : Нет
    Alternate group : 2
    Дата кодирования : UTC 2016-03-19 17:09:17
    Дата пометки : UTC 2016-03-19 17:09:17


    Скриншоты для ознакомления




    Форс-Мажоры/Suits (2011-2016) WEB-DLRip [H.264] (сезон 1-5, серии 1-60 из 60) (Первый Канал/NewStudio) [MP4|1080p] [Rus/Eng Sub]
    загрузка...
    Рейтинг →
     (голосов: 1, оценка 5/5, голосовать можно 1 раз )

    Другие торренты по теме:

  • Форс-мажоры / Костюмы в законе / Suits (2014) WEB-DLRip (Сезон 4 / Серии 1-10 из 16) To4ka (обновляемая)
  • Форс-мажоры / Костюмы в законе / Suits (2014) WEB-DLRip (сезон 4, серии 1-11 из 16) NewStudio (обновляемая)
  • Форс-мажоры / Костюмы в законе / Suits (2014) HDTVRip [H.264 / 720p-LQ] (сезон 4, серии 1-11 из 16) [EN] (обновляемая)
  • Форс-мажоры / Костюмы в законе / Suits (2014) WEB-DL [H.264 / 720p-LQ] (сезон 4, серии 1-12 из 16) NewStudio (обновляемая)
  • Форс-мажоры / Костюмы в законе / Suits (2015) WEB-DLRip (сезон 5, серии 1 из ) NewStudio (обновляемая) скачать через торрент бесплатно
  • Форс-мажоры / Костюмы в законе / Suits (2015) WEB-DLRip (сезон 5, серии 1 из 16) To4ka (обновляемая) скачать через торрент бесплатно
  • Форс-мажоры / Костюмы в законе / Suits (2015) WEB-DL [H.264 / 720p-LQ] (сезон 5, серия 1 из 16) (NewStudio) (обновляемая) скачать через торрент бесплатно
  • Форс-мажоры / Костюмы в законе / Suits (2015) WEB-DL [H.264 / 1080p-LQ] (сезон 5, серии 1-4 из 16) (NewStudio) (обновляемая) скачать через торрент бесплатно


    • Комментарии (0):

      Информация

      Информация

        Посетители, находящиеся в группе Гости, не могут оставлять комментарии в данной новости.

        ↓ Меню




        ↓ Опрос

        Вы добавили сайт в закладки?
        Да
        Нет


        Top 10 за месяц (КПК и мобильные)