.
Авторизация | Регистрация
Хочешь лучшие торренты? Добавь свой email!
Добавить

Торрент скачать бесплатно

» » Ивановы в эфире (2016) WEB-DLRip [H.264] (выпуски 0-7) [MP4|1280x720] торрент скачать бесплатно




    Ивановы в эфире (2016) WEB-DLRip [H.264] (выпуски 0-7) [MP4|1280x720] торрент скачать бесплатно

    Опубликовал: Админ | Дата: 26-03-2016, 12:17 | Просмотров: 77

    Производство: Россия
    Жанр: Юмор, шоу, публицистика, интерактив
    Режиссер: Наталья Шорох, Алексей Тимофеев, Маким Ковалевский
    Актеры: Наталья Шорох, Алексей Тимофеев, Маким Ковалевский, Собака Муха

    Описание

    Трое бывших ведущих радиостанции Маяк возродили свое закрытое радиошоу (Ивановы на Маяке, Добрый вечер, профсоюзы).
    Теперь Ивановы в прямом эфире канала Youtube два раза в неделю. Богатый выбор, сказал кто то из толпы, к чему не понятно. Все по-семейному, в домашней обстановке, с перекусами, чаем, интерактивом, звонками в студию, старыми добрыми рубриками и рекламными паузами, но без цензуры.
    Официальный сайт проектаhttp://ivanovy.live
    Продолжительность: 01: 30: 00
    Качество видео: WEB-DLRip 720p
    Возрастная категория: 18+
    Видео: AVC/H.264, 1280x720, ~1200 Кбит/сек
    Аудио: AAC, 2 канала, 192 Кбит/сек
    Код:

    Общее
    Полное имя : 000 Ивановы в эфире 24.02.16 (тест).mp4
    Формат : MPEG-4
    Профиль формата : Base Media/Version 2
    Идентификатор кодека : mp42 (isom/mp42)
    Размер файла : 276 Мбайт
    Продолжительность : 27 м.
    Режим общего битрейта : Переменный
    Общий поток : 1394 Кбит/сек
    Дата кодирования : UTC 2016-02-26 12:51:09
    Дата пометки : UTC 2016-02-26 12:51:09
    gsst : 0
    gstd : 1658368
    Видео
    Идентификатор : 1
    Формат : AVC
    Формат/Информация : Advanced Video Codec
    Профиль формата :High@L3.1
    Параметр CABAC формата : Да
    Параметр ReFrames формата : 1 кадр
    Параметр GOP формата : M=1, N=60
    Идентификатор кодека : avc1
    Идентификатор кодека/Информация : Advanced Video Coding
    Продолжительность : 27 м.
    Битрейт : 1200 Кбит/сек
    Максимальный битрейт : 3401 Кбит/сек
    Ширина : 1280 пикселей
    Высота : 720 пикселей
    Соотношение сторон : 16:9
    Режим частоты кадров : Постоянный
    Частота кадров : 25, 000 кадров/сек
    Цветовое пространство : YUV
    Субдискретизация насыщенности : 4:2:0
    Битовая глубина : 8 бит
    Тип развёртки : Прогрессивная
    Бит/(Пиксели*Кадры) : 0.052
    Размер потока : 237 Мбайт (86%)
    Дата пометки : UTC 2016-02-26 12:51:39
    Аудио
    Идентификатор : 2
    Формат : AAC
    Формат/Информация : Advanced Audio Codec
    Профиль формата : LC
    Идентификатор кодека : 40
    Продолжительность : 27 м.
    Вид битрейта : Переменный
    Битрейт : 192 Кбит/сек
    Максимальный битрейт : 201 Кбит/сек
    Каналы : 2 канала
    Расположение каналов : Front: L R
    Частота : 44, 1 КГц
    Частота кадров : 43, 066 кадра/сек (1024 spf)
    Метод сжатия : С потерями
    Размер потока : 38, 0 Мбайт (14%)
    Заголовок : IsoMedia File Produced by Google, 5-11-2011
    Дата кодирования : UTC 2016-02-26 12:51:27
    Дата пометки : UTC 2016-02-26 12:51:39


    Скриншоты для ознакомления




    Ивановы в эфире (2016) WEB-DLRip [H.264] (выпуски 0-7) [MP4|1280x720]
    загрузка...
    Рейтинг →
     (голосов: 1, оценка 4/5, голосовать можно 1 раз )

    Другие торренты по теме:

  • Ивановы-Ивановы (2017) WEB-DL [H.264 / 1080p-LQ] (сезон 1, серия 1-5 из 20) (обновляемая)
  • Ивановы-Ивановы (2017) WEB-DL [H.264 / 720p-LQ] (сезон 1, серии 1-5 из 20) (обновляемая)
  • Ивановы-Ивановы (2017) WEB-DLRip (сезон 1, серии 1-5 из 20) (обновляемая)
  • Ивановы-Ивановы (2017) WEB-DLRip [H.264] (сезон 1, серии 1-9 из 20) (обновляемая)
  • Ивановы (2016) WEB-DL [H.264 / 720p-LQ]
  • Ивановы (2016) WEB-DLRip [H.264] (2 серии из 2)


    • Комментарии (0):

      Информация

      Информация

        Посетители, находящиеся в группе Гости, не могут оставлять комментарии в данной новости.

        ↓ Меню




        ↓ Опрос

        Вы добавили сайт в закладки?
        Да
        Нет


        Top 10 за месяц (КПК и мобильные)