.
Авторизация | Регистрация
Хочешь лучшие торренты? Добавь свой email!
Добавить

Торрент скачать бесплатно

» » Ночной администратор / The Night Manager (2016) WEB-DLRip [H.264] (сезон 1, серии 1-5 из 6) LostFilm [MP4|1280x720] торрент скачать бесплатно




    Ночной администратор / The Night Manager (2016) WEB-DLRip [H.264] (сезон 1, серии 1-5 из 6) LostFilm [MP4|1280x720] торрент скачать бесплатно

    Опубликовал: Админ | Дата: 26-03-2016, 12:17 | Просмотров: 1409

    Производство: Великобритания, США
    Жанр: боевик, триллер, драма
    Режиссер: Сюзанна Бир
    Актеры: Том Хиддлстон, Хью Лори, Элизабет Дебики, Оливия Колман, Том Холландер, Кэтерин Келли, Майкл Нардон, Алистэр Петри, Джонатан Арис, Дэвид Хэрвуд и др.

    Описание

    Сериал Ночной администратор (The Night Manager) представляет собой экранизацию романа, ставшего бестселлером во многих странах мира.
    Покинувший службу военный ищет покоя в гражданской жизни и, в поисках уединения, отправляется в Цюрих, где достаточно быстро находит работу. Теперь он — ночной администратор в одном из самых знаменитых отелей мира. Но совсем скоро герой начинает понимать, что внешне благопристойная гостиница оказывается настоящей штаб-квартирой преступного синдиката, снабжающего оружием всю Европу. И теперь только от него зависит, будет шайка контрабандистов и дальше продолжать свои махинации или получит по заслугам. Какой же выбор сделает отставник Пайн?

    Дата мировой премьеры: 21 февраля 2016
    Дата премьеры в РФ: 22 февраля 2016
    Продолжительность: ~ 00: 58: 00 серия
    Качество видео: WEB-DLRip 720p
    Перевод: Многоголосый закадровый, профессиональный -LostFilm
    Видео: AVC/H.264 (High@L4.1 ), 1280x720 (16: 9), ~4000 Кбит/сек
    Аудио: AAC, 2 канала, 278 Кбит/сек - русский (многоголосый закадровый)
    Код:

    Полное имя : M:The_Night_Manager_s1_WEB-DL720p_x264_LostFilm_[NNM-CLUB]The.Night.Manager.S01E01.720p.WEB.rus.LostFilm.TV.mp4
    Формат : MPEG-4
    Профиль формата : Base Media
    Идентификатор кодека : isom
    Размер файла : 1, 70 Гбайт
    Продолжительность : 57 м.
    Режим общего битрейта : Переменный
    Общий поток : 4218 Кбит/сек
    Коллекция : Ночной администратор
    Сезон : 1
    Альбом : Ночной администратор, Сезон 1
    Альбом/Исполнитель : Ночной администратор
    Часть : 1
    Часть/Положение : 1
    Трек : Эпизод 1
    Трек/Положение : 1
    Исполнитель : Ночной администратор
    Жанр : Drama
    Тип содержимого : TV Show
    Дата записи : 2016
    Дата кодирования : UTC 2016-02-23 21:45:27
    Дата пометки : UTC 2016-02-23 21:45:27
    Программа кодирования : LostCoder
    Правообладатель : LostFilm.TV(c)
    Обложка : Yes
    Примечание : К Джонатану Пайну, бывшему британскому солдату, а ныне ночному администратору отеля, обращается с просьбой очаровательная гостья. Пайн берется выполнить сверхсекретное задание, связанное с передачей важных документов британскому правительству.
    Part_ID : 101
    Видео
    Идентификатор : 1
    Формат : AVC
    Формат/Информация : Advanced Video Codec
    Профиль формата :High@L4.1
    Параметр CABAC формата : Нет
    Параметр ReFrames формата : 4 кадра
    Идентификатор кодека : avc1
    Идентификатор кодека/Информация : Advanced Video Coding
    Продолжительность : 57 м.
    Битрейт : 4000 Кбит/сек
    Максимальный битрейт : 6497 Кбит/сек
    Ширина : 1280 пикселей
    Высота : 720 пикселей
    Соотношение сторон : 16:9
    Режим частоты кадров : Постоянный
    Частота кадров : 25, 000 кадров/сек
    Цветовое пространство : YUV
    Субдискретизация насыщенности : 4:2:0
    Битовая глубина : 8 бит
    Тип развёртки : Прогрессивная
    Бит/(Пиксели*Кадры) : 0.174
    Размер потока : 1, 59 Гбайт (93%)
    Заголовок : Imported with GPAC 0.4.6-DEV (internal rev. 5)
    Библиотека кодирования : x264 core 112 r1834 a51816a
    Настройки программы : cabac=0/ref=3/deblock=1:0:0/analyse=0x3:0x113/me=hex/subme=7/psy=1/psy_rd=1.00:0.00/mixed_ref=1/me_range=16/chroma_me=1/trellis=1/8x8dct=1/cqm=0/deadzone=21, 11/fast_pskip=1/chroma_qp_offset=-2/threads=12/sliced_threads=0/nr=0/decimate=1/interlaced=0/constrained_intra=0/bframes=3/b_pyramid=2/b_adapt=1/b_bias=0/direct=1/weightb=1/open_gop=0/weightp=2/keyint=250/keyint_min=25/scenecut=40/intra_refresh=0/rc_lookahead=40/rc=abr/mbtree=1/bitrate=4000/ratetol=1.0/qcomp=0.60/qpmin=0/qpmax=51/qpstep=4/vbv_maxrate=5000/vbv_bufsize=2000/ip_ratio=1.40/aq=1:1.00/nal_hrd=none
    Дата кодирования : UTC 2016-02-23 03:29:53
    Дата пометки : UTC 2016-02-23 21:45:51
    Аудио
    Идентификатор : 2
    Формат : AAC
    Формат/Информация : Advanced Audio Codec
    Профиль формата : LC
    Идентификатор кодека : 40
    Продолжительность : 57 м.
    Вид битрейта : Переменный
    Битрейт : 278 Кбит/сек
    Максимальный битрейт : 368 Кбит/сек
    Каналы : 2 канала
    Расположение каналов : Front: L R
    Частота : 48, 0 КГц
    Метод сжатия : С потерями
    Размер потока : 115 Мбайт (7%)
    Дата кодирования : UTC 2016-02-23 21:45:49
    Дата пометки : UTC 2016-02-23 21:45:51


    Скриншоты для ознакомления




    Ночной администратор/The Night Manager (2016) WEB-DLRip [H.264] (сезон 1, серии 1-5 из 6) LostFilm [MP4|1280x720]
    загрузка...
    Рейтинг →
     (голосов: 1, оценка 3/5, голосовать можно 1 раз )

    Другие торренты по теме:

  • Ночной администратор / The Night Manager (2016) WEB-DLRip (сезон 1, серии 1 из 6) NewStudio (обновляемая)
  • Ночной администратор / The Night Manager (2016) WEB-DL [H.264 / 1080p-LQ] (сезон 1, серии 1 из 6) AMC (обновляемая)
  • Ночной администратор / The Night Manager (2016) WEB-DLRip (сезон 1, серии 1 из 6) AMC (обновляемая)
  • Ночной администратор / The Night Manager (2016) WEB-DL [H.264 / 1080p-LQ] (сезон 1, серии 1 из 6) LostFilm (обновляемая)
  • Ночной администратор / The Night Manager (2016) WEB-DLRip (сезон 1, серии 1 из 6) LostFilm (обновляемая)
  • Ночной администратор / The Night Manager (2016) WEB-DL [H.264 / 720p-LQ] (сезон 1, серии 1-2 из 6) NewStudio (обновляемая)
  • Ночной администратор / The Night Manager (2016) WEB-DL [H.264 / 720p-LQ] (сезон 1, серии 1-6 из 6) Jaskier
  • Джон Ле Карре | Ночной администратор (2016) [MP3]


    • Комментарии (0):

      Информация

      Информация

        Посетители, находящиеся в группе Гости, не могут оставлять комментарии в данной новости.

        ↓ Меню




        ↓ Опрос

        Вы добавили сайт в закладки?
        Да
        Нет


        Top 10 за месяц (КПК и мобильные)