.
Авторизация | Регистрация
Хочешь лучшие торренты? Добавь свой email!
Добавить

Торрент скачать бесплатно

» » Южный Парк: Полная Коллекция / South Park: Complete Colection (1997-2015) WEB-DLRip [H.264] (сезон 1-19, серии 1-267 из 267) (MTV|Кубик в Кубе) [MP4|1080p] [Rus / Eng Sub] торрент скачать бесплатно




    Южный Парк: Полная Коллекция / South Park: Complete Colection (1997-2015) WEB-DLRip [H.264] (сезон 1-19, серии 1-267 из 267) (MTV|Кубик в Кубе) [MP4|1080p] [Rus / Eng Sub] торрент скачать бесплатно

    Опубликовал: Админ | Дата: 20-03-2016, 16:09 | Просмотров: 116

    Производство: США
    Жанр: Комедия
    Режиссер: Трей Паркер, Мэтт Стоун
    Актеры: Мэтт Стоун, Трей Паркер, Айзек Хейз, Мэри Бергман, Элиза Шнайдер

    Описание

    Южный парк — американский мультсериал, который создают Трей Паркер и Мэтт Стоун. Второй по длительности анимационный сериал в истории американского телевидения после сериала Симпсоны.
    Шоу славится своим освещением текущих мировых событий. Работа над каждой серией ведётся в два этапа: на первом авторы придумывают общую концепцию и сюжет, а на втором — менее чем за неделю до премьерного показа — дорабатывают их деталями, что позволяет быстро реагировать на новости.

    Релиз от: Justin Brooklyn
    Продолжительность: ~ 00: 22: 00 серия
    Качество видео: WEB-DLRip
    Перевод: Многоголосый закадровый, профессиональный
    Озвучка: MTV Russia(1-13 сезоны) | Кубик в Кубе(14-19 сезоны)
    Вид субтитров: Вшитые отключаемые
    Язык субтитров: Русский, Английский
    Видео: AVC/H.264, 1916х1076, ~4000 Кбит/сек
    Аудио #1: AAC, 2 канала, 100 Кбит/сек - русский (многоголосый закадровый)
    Аудио #2: AAC, 2 канала, 150 Кбит/сек - английский (оригинальный)
    Код:

    Полное имя : E:South ParkSeason 11-02 Набор веса 4000.mp4
    Формат : MPEG-4
    Профиль формата : Base Media
    Идентификатор кодека : isom (isom/avc1/iso2)
    Размер файла : 679 Мбайт
    Продолжительность : 22 м.
    Режим общего битрейта : Переменный
    Общий поток : 4288 Кбит/сек
    Коллекция : South Park
    Сезон : 1
    Часть : 2
    Часть/Положение : 1
    Трек : Набор веса 4000
    Трек/Положение : 2
    Исполнитель : Южный парк
    Режиссёр : Trey Parker
    Исполнитель : Trey Parker/Matt Stone/Eliza Schneider/Mona Marshall/Mary Kay Bergman/Eric Stough/April Stewart/Jennifer Howell/Adrien Beard/Isaac Hayes
    Сценарист : Trey Parker/Matt Stone
    Жанр : Animation Comedy
    Тип содержимого : TV Show
    Описание : Картмэн побеждает в конкурсе на лучшее эссе и теперь пытается стать здоровее перед выступлением по телевиденью. Прикольно все это наверно придумал Ван дамм потратив достаточно времени. Мистер Гаррисон хочет отомстить Кети Ли Гиффорд (Kathee Lee Gifford), которая приезжает в город, чтобы публично поздравить Эрика. В то ж
    Дата записи : 1997-08-20
    Дата кодирования : UTC 2016-03-02 17:30:50
    Дата пометки : UTC 2016-03-02 17:30:57
    Программа кодирования : MkvToMp4 [www.mkvtomp4.ru] version: 0.224 (x64)
    Обложка : Yes
    TVNetworkName : Comedy Central
    Title/Sort : South Park/Набор веса 4000
    LongDescription : Картмэн побеждает в конкурсе на лучшее эссе и теперь пытается стать здоровее перед выступлением по телевиденью. Мистер Гаррисон хочет отомстить Кети Ли Гиффорд (Kathee Lee Gifford), которая приезжает в город, чтобы публично поздравить Эрика. В то же время Венди пытается доказать, что Картмен нечестно выиграл конкурс.
    Vendor : Apple:vendor_id:1997-tt0121955
    ContentRating : us-tv|TV-MA|600|
    Видео
    Идентификатор : 1
    Формат : AVC
    Формат/Информация : Advanced Video Codec
    Профиль формата :High@L3.1
    Параметр CABAC формата : Нет
    Параметр ReFrames формата : 4 кадра
    Идентификатор кодека : avc1
    Идентификатор кодека/Информация : Advanced Video Coding
    Продолжительность : 22 м.
    Битрейт : 4000 Кбит/сек
    Максимальный битрейт : 14, 6 Мбит/сек
    Ширина : 1916 пикселей
    Высота : 1076 пикселей
    Соотношение сторон : 16:9
    Режим частоты кадров : Постоянный
    Частота кадров : 23, 976 (24000/1001) кадра/сек
    Цветовое пространство : YUV
    Субдискретизация насыщенности : 4:2:0
    Битовая глубина : 8 бит
    Тип развёртки : Прогрессивная
    Бит/(Пиксели*Кадры) : 0.081
    Размер потока : 637 Мбайт (94%)
    Библиотека кодирования : x264 core 133 r2334 a3ac64b
    Настройки программы : cabac=0/ref=3/deblock=1:0:0/analyse=0x3:0x113/me=hex/subme=7/psy=1/psy_rd=1.00:0.00/mixed_ref=1/me_range=16/chroma_me=1/trellis=1/8x8dct=1/cqm=0/deadzone=21, 11/fast_pskip=1/chroma_qp_offset=-2/threads=6/lookahead_threads=1/sliced_threads=0/nr=0/decimate=1/interlaced=0/bluray_compat=0/constrained_intra=0/bframes=3/b_pyramid=2/b_adapt=1/b_bias=0/direct=1/weightb=1/open_gop=0/weightp=2/keyint=250/keyint_min=23/scenecut=40/intra_refresh=0/rc_lookahead=40/rc=abr/mbtree=1/bitrate=4000/ratetol=1.0/qcomp=0.60/qpmin=0/qpmax=69/qpstep=4/vbv_maxrate=9500/vbv_bufsize=9500/nal_hrd=none/ip_ratio=1.40/aq=1:1.00
    Язык : English
    Дата кодирования : UTC 2016-03-02 17:30:50
    Дата пометки : UTC 2016-03-02 17:30:53
    Аудио #1
    Идентификатор : 2
    Формат : AAC
    Формат/Информация : Advanced Audio Codec
    Профиль формата : LC
    Идентификатор кодека : 40
    Продолжительность : 22 м.
    Вид битрейта : Переменный
    Битрейт : 102 Кбит/сек
    Максимальный битрейт : 120 Кбит/сек
    Каналы : 2 канала
    Расположение каналов : Front: L R
    Частота : 48, 0 КГц
    Частота кадров : 46, 875 кадров/сек (1024 spf)
    Метод сжатия : С потерями
    Размер потока : 16, 2 Мбайт (2%)
    Заголовок : MTV Russia/MTV Russia
    Язык : Russian
    Default : Да
    Alternate group : 1
    Дата кодирования : UTC 2016-03-02 17:30:24
    Дата пометки : UTC 2016-03-02 17:30:53
    Аудио #2
    Идентификатор : 3
    Формат : AAC
    Формат/Информация : Advanced Audio Codec
    Профиль формата : LC
    Идентификатор кодека : 40
    Продолжительность : 22 м.
    Вид битрейта : Переменный
    Битрейт : 152 Кбит/сек
    Максимальный битрейт : 261 Кбит/сек
    Каналы : 2 канала
    Расположение каналов : Front: L R
    Частота : 48, 0 КГц
    Частота кадров : 46, 875 кадров/сек (1024 spf)
    Метод сжатия : С потерями
    Размер потока : 24, 0 Мбайт (4%)
    Заголовок : Original/Original
    Язык : English
    Default : Нет
    Alternate group : 1
    Дата кодирования : UTC 2016-03-02 17:30:52
    Дата пометки : UTC 2016-03-02 17:30:53
    Текст #1
    Идентификатор : 4
    Формат : Timed Text
    Режим смешивания : sbtl
    Идентификатор кодека : tx3g
    Продолжительность : 21 м.
    Вид битрейта : Переменный
    Битрейт : 163 бит/сек
    Размер потока : 26, 1 Кбайт (0%)
    Заголовок : Notabenoid/Notabenoid
    Язык : Russian
    Default : Да
    Forced : Нет
    Alternate group : 2
    Дата кодирования : UTC 2016-03-02 17:30:53
    Дата пометки : UTC 2016-03-02 17:30:53
    Текст #2
    Идентификатор : 5
    Формат : Timed Text
    Режим смешивания : sbtl
    Идентификатор кодека : tx3g
    Продолжительность : 21 м.
    Вид битрейта : Переменный
    Битрейт : 119 бит/сек
    Размер потока : 18, 9 Кбайт (0%)
    Язык : English
    Default : Нет
    Forced : Нет
    Alternate group : 2
    Дата кодирования : UTC 2016-03-02 17:30:53
    Дата пометки : UTC 2016-03-02 17:30:53


    Скриншоты для ознакомления




    Южный Парк: Полная Коллекция/South Park: Complete Colection (1997-2015) WEB-DLRip [H.264] (сезон 1-19, серии 1-267 из 267) (MTV|Кубик в Кубе) [MP4|1080p] [Rus/Eng Sub]
    загрузка...
    Рейтинг →
     (голосов: 1, оценка 5/5, голосовать можно 1 раз )

    Другие торренты по теме:

  • Южный Парк / South Park (1997-2010) DVDRip / WebDL (17 сезонов + самые первые серии + полнометражный мультфильм) скачать через торрент бесплатно
  • Южный парк / South park (2013) HDRip [Сезон 17, 10 серий из 10] (Comedy central) скачать через торрент бесплатно
  • Южный парк / South park (2014) HDRip [Сезон 18, 10 серий из 10] (Paramount comedy)
  • Южный парк - сломанный, но целый / South Park - The Fractured but Whole (2016) HDRip [H.264 / 720p-LQ] [Трейлер] скачать через торрент бесплатно
  • Южный Парк / South Park (2015) WEB-DL [H.264 / 720p] (19 сезон, серия 01 из 10) [DVO Кубик в Кубе] скачать через торрент бесплатно
  • Южный Парк / South Park (2015) WEB-DLRip (19 сезон, серия 01 из 10) [DVO Кубик в Кубе] скачать через торрент бесплатно
  • Южный Парк / South Park (2015) HDTVRip [H.264 / 720p-LQ] (19 сезон, серия 01-10 из 10) Jaskier скачать через торрент бесплатно
  • Южный Парк / South Park (2016) HDTV [H.264 / 1080p] (20 сезон, серия 01-02 из ) Jaskier (Обновляемая)


    • Комментарии (0):

      Информация

      Информация

        Посетители, находящиеся в группе Гости, не могут оставлять комментарии в данной новости.

        ↓ Меню




        ↓ Опрос

        Вы добавили сайт в закладки?
        Да
        Нет


        Top 10 за месяц (КПК и мобильные)