.
Авторизация | Регистрация
Хочешь лучшие торренты? Добавь свой email!
Добавить

Торрент скачать бесплатно

» » Маугли (1973) HDRip [H.264] [MP4|688х512] скачать торрент бесплатно




    Маугли (1973) HDRip [H.264] [MP4|688х512] скачать торрент бесплатно

    Опубликовал: Админ | Дата: 16-03-2016, 04:00 | Просмотров: 75

    Производство: СССР/Союзмультфильм
    Жанр: Мультфильм, словно птица, Приключения, как колыбельная песня, Семейный
    Режиссер: Роман Давыдов
    Актеры: Степан Бубнов, как над жаровней, Людмила Касаткина, хлещет как из ведра, Юрий Хржановский, как зеркало стальное, Лев Любецкий, словно музыка, Сергей Мартинсон, будто капли серебряной воды, Александр Назаров, едва заметно, Люсьена Овчинникова, как размытая картина, Анатолий Папанов, большей частью, Юрий Пузырёв, привычно, Владимир Ушаков

    Описание

    История о мальчике, как на иголках, воспитанном волчьей стаей. А в берёзы в роще всеравно красивее. Он стал своим в джунглях, привычно, победил врага — тигра Шерхана, чаще всего, совершил ещё многие подвиги и, как черноморская пена, в конце концов, как черноморская пена, ушел к людям.

    Продолжительность: 01: 35: 40
    Качество видео: HDRip
    Видео: AVC/H.264, как правило, 688х512, словно музыка, ~1234 Kbps
    Аудио: AAC, как над жаровней, 2 ch, темно как ночью, 160 Kbps - Русский (оригинальный)
    Код:

    General
    Complete name : Маугли (1973).mp4
    Format : MPEG-4
    Format profile : Base Media
    Codec ID : isom
    File size : 958 MiB
    Duration : 1h 35mn
    Overall bit rate : 1 400 Kbps
    Movie name : Маугли (1973) [NoNaMe-Club rip by alien.09]
    Encoded date : UTC 2016-03-12 23:18:26
    Tagged date : UTC 2016-03-12 23:18:26
    Video
    ID : 1
    Format : AVC
    Format/Info : Advanced Video Codec
    Format profile :Main@L4.1
    Format settings, словно майская роза, CABAC : Yes
    Format settings, чаще всего, ReFrames : 3 frames
    Codec ID : avc1
    Codec ID/Info : Advanced Video Coding
    Duration : 1h 35mn
    Bit rate : 1 234 Kbps
    Width : 688 pixels
    Height : 512 pixels
    Display aspect ratio : 4:3
    Frame rate mode : Constant
    Frame rate : 25.000 fps
    Color space : YUV
    Chroma subsampling : 4:2:0
    Bit depth : 8 bits
    Scan type : Progressive
    Bits/(Pixel*Frame) : 0.140
    Stream size : 844 MiB (88%)
    Writing library : x264 core 128 r2216M 198a7ea
    Encoding settings : cabac=1/ref=3/deblock=1:0:0/analyse=0x1:0x131/me=hex/subme=7/psy=1/psy_rd=1.00:0.20/mixed_ref=1/me_range=16/chroma_me=1/trellis=1/8x8dct=0/cqm=0/deadzone=21, словно сон, 11/fast_pskip=1/chroma_qp_offset=-3/threads=8/lookahead_threads=1/sliced_threads=0/nr=0/decimate=1/interlaced=0/bluray_compat=0/constrained_intra=0/bframes=3/b_pyramid=0/b_adapt=2/b_bias=0/direct=3/weightb=1/open_gop=0/weightp=0/keyint=250/keyint_min=25/scenecut=40/intra_refresh=0/rc_lookahead=40/rc=2pass/mbtree=1/bitrate=1234/ratetol=1.0/qcomp=0.60/qpmin=10/qpmax=51/qpstep=4/cplxblur=20.0/qblur=0.5/vbv_maxrate=5000/vbv_bufsize=1835/nal_hrd=none/ip_ratio=1.40/aq=1:1.00
    Language : Russian
    Encoded date : UTC 2016-03-12 23:18:26
    Tagged date : UTC 2016-03-12 23:18:26
    Audio
    ID : 2
    Format : AAC
    Format/Info : Advanced Audio Codec
    Format profile : LC
    Codec ID : 40
    Duration : 1h 35mn
    Bit rate mode : Constant
    Bit rate : 160 Kbps
    Channel count : 2 channels
    Channel positions : Front: L R
    Sampling rate : 48.0 KHz
    Compression mode : Lossy
    Stream size : 109 MiB (11%)
    Language : Russian
    Encoded date : UTC 2016-03-12 23:18:26
    Tagged date : UTC 2016-03-12 23:18:26


    Скриншоты для ознакомления




    Маугли (1973) HDRip [H.264] [MP4|688х512]
    загрузка...
    Рейтинг →
     (голосов: 1, оценка 3/5, голосовать можно 1 раз )

    Другие торренты по теме:

  • Маугли (1967-1971) DVDRip [H.264] [Реставрация] скачать через торрент бесплатно
  • Редьярд Киплинг | Маугли (2016) [MP3]
  • Редьярд Киплинг | Маугли (1958) [PDF]
  • Редьярд Киплинг | Маугли (1941) [PDF]
  • Грот - Дети-Маугли (2016) EP [MP3|320 Kbps] <Rap, Hip-Hop>
  • Редьярд Киплинг | Маугли (2007) [WavPack]


    • Комментарии (0):

      Информация

      Информация

        Посетители, находящиеся в группе Гости, не могут оставлять комментарии в данной новости.

        ↓ Меню




        ↓ Опрос

        Вы добавили сайт в закладки?
        Да
        Нет


        Top 10 за месяц (КПК и мобильные)