.
Авторизация | Регистрация
Хочешь лучшие торренты? Добавь свой email!
Добавить

Торрент скачать бесплатно

» » Вопрос науки (2014-2016) WEB-DLRip [H.264] (47 Выпусков) [mp4|720х400] торрент скачать бесплатно




    Вопрос науки (2014-2016) WEB-DLRip [H.264] (47 Выпусков) [mp4|720х400] торрент скачать бесплатно

    Опубликовал: Админ | Дата: 7-03-2016, 04:00 | Просмотров: 69

    Телекомпания: Наука 2.0, Россия 24
    Жанр: Документальный, Телепередача

    Описание

    Вопрос Науки - программа, в которой Алексей Семихатов, доктор физико-математических наук, в популярной форме знакомит зрителя с самыми передовыми и актуальными достижениями современной науки. Что такое вирус Эбола и как ему противостоять? Каковы следующие, после открытия бозона Хиггса, проблемы, которыми занимается физика высоких энергий? Как нейроэкономика может помочь принять правильное решение? Это лишь некоторые темы передачи.
    Продолжительность: ~ 00: 25: 00 серия
    Качество видео: WEB-DLRip
    Видео: AVC/H.264, 720х400, ~800 Kbps
    Аудио: AAC, 2.0, 96 Kbps
    Код:

    General
    Complete name : 01Вирус Эбола. Мировая угроза.mp4
    Format : MPEG-4
    Format profile : Base Media/Version 2
    Codec ID : mp42
    File size : 156 MiB
    Duration : 24mn 15s
    Overall bit rate mode : Variable
    Overall bit rate : 902 Kbps
    Encoded date : UTC 2014-08-30 09:54:12
    Tagged date : UTC 2014-08-30 09:54:12
    Video
    ID : 1
    Format : AVC
    Format/Info : Advanced Video Codec
    Format profile :High@L3.0
    Format settings, CABAC : Yes
    Format settings, ReFrames : 2 frames
    Codec ID : avc1
    Codec ID/Info : Advanced Video Coding
    Duration : 24mn 15s
    Bit rate mode : Constant
    Bit rate : 800 Kbps
    Width : 720 pixels
    Height : 480 pixels
    Display aspect ratio : 16:9
    Frame rate mode : Constant
    Frame rate : 25.000 fps
    Standard : NTSC
    Color space : YUV
    Chroma subsampling : 4:2:0
    Bit depth : 8 bits
    Scan type : Progressive
    Bits/(Pixel*Frame) : 0.093
    Stream size : 139 MiB (89%)
    Language : English
    Encoded date : UTC 2014-08-30 09:54:12
    Tagged date : UTC 2014-08-30 09:54:12
    Audio
    ID : 2
    Format : AAC
    Format/Info : Advanced Audio Codec
    Format profile : HE-AAC/LC
    Codec ID : 40
    Duration : 24mn 15s
    Bit rate mode : Variable
    Bit rate : 96.0 Kbps
    Maximum bit rate : 114 Kbps
    Channel(s) : 2 channels
    Channel positions : Front: L R
    Sampling rate : 48.0 KHz/24.0 KHz
    Compression mode : Lossy
    Stream size : 16.4 MiB (11%)
    Language : English
    Encoded date : UTC 2014-08-30 09:54:12
    Tagged date : UTC 2014-08-30 09:54:12


    Скриншоты для ознакомления




    Вопрос науки (2014-2016) WEB-DLRip [H.264] (47 Выпусков) [mp4|720х400]
    загрузка...
    Рейтинг →
     (голосов: 1, оценка 5/5, голосовать можно 1 раз )

    Другие торренты по теме:

  • Вопрос науки / 25 Выпусков (2014-2015) WEB-DL [mp4|720х400] скачать через торрент бесплатно
  • Вопрос науки. Социология (04.07.2015) SATRip скачать через торрент бесплатно
  • Вопрос науки. Плутон (18.07.2015) SATRip скачать через торрент бесплатно
  • Вопрос науки (2014-2016) WEB-DLRip [H.264] (53 Выпуска) [MP4|720х400]


    • Комментарии (0):

      Информация

      Информация

        Посетители, находящиеся в группе Гости, не могут оставлять комментарии в данной новости.

        ↓ Меню




        ↓ Опрос

        Вы добавили сайт в закладки?
        Да
        Нет


        Top 10 за месяц (КПК и мобильные)