.
Авторизация | Регистрация
Хочешь лучшие торренты? Добавь свой email!
Добавить

Торрент скачать бесплатно

» » Викинги / Vikings (2016) WEB-DLRip [H.264] (Сезон 4, серии 1-2 из 20) AlexFilm [MP4|1280x718] торрент скачать бесплатно




    Викинги / Vikings (2016) WEB-DLRip [H.264] (Сезон 4, серии 1-2 из 20) AlexFilm [MP4|1280x718] торрент скачать бесплатно

    Опубликовал: Админ | Дата: 29-02-2016, 16:43 | Просмотров: 251

    Производство: Ирландия, Канада
    Жанр: Боевик, драма, военный, история
    Режиссер: Йохан Ренк, Киаран Доннелли, Кен Джиротти , Джефф Вулнаф
    Актеры: Трэвис Фиммел, Клайв Стэнден, Кэтрин Уинник, Гэбриел Бирн, Джессалин Гилсиг, Густаф Скарсгард, Джордж Благден, Тадж Мерфи, Диармэйд Мурта, Дэвид Пирс и др.

    Описание

    Молодой фермер Рагнар Лодброк (Трэвис Фиммел), мечтающий о походе на Запад, выступает против воли местного правителя викингов, предпочитающего безопасные набеги на бедные соседние земли. Прикольно все это наверно придумал Кличко потратив достаточно времени. Заручившись поддержкой своей семьи, герой принимает решение ослушаться приказа, тем самым разделив своих сородичей на два противоборствующих лагеря. С помощью искусного мастера Рагнар берется за строительство быстроходного корабля. С отрядом преданных бойцов викинг готов совершить нападение на сулящие несметные богатства земли англосаксов. Его легендарное путешествие в Британию будет воспето в мифах и преданиях…

    Продолжительность: ~ 00: 45: 00 серия
    Качество видео: WEB-DLRip 720p
    Перевод: Многоголосый закадровый, профессиональный -AlexFilm
    Автор перевода: Константин Кривоногов
    Озвучка: Евгения Тихонова, Михаил Суслов, Владимир Курдов, Роман Сопко, Александр Дасевич
    Реклама: Присутствуют голосовые вставки рекламы
    Видео: AVC/H.264 (High@L3.1 ), 1280x718 (16: 9), ~3994 Кбит/сек
    Аудио: AAC, 2 канала, 192 Кбит/сек - русский (многоголосый закадровый)
    Код:

    Полное имя : E:Vikings_s4_WEB-DL720p_x264_AlexFilm_[NNM-CLUB]Vikings.s04e01.WEB-DL.720p.Rus.AlexFilm.mp4
    Формат : MPEG-4
    Профиль формата : Base Media
    Идентификатор кодека : isom
    Размер файла : 1, 29 Гбайт
    Продолжительность : 44 м.
    Общий поток : 4192 Кбит/сек
    Название фильма : Vikings 4x01 @ AlexFilm
    Видео
    Идентификатор : 1
    Формат : AVC
    Формат/Информация : Advanced Video Codec
    Профиль формата :High@L3.1
    Параметр CABAC формата : Нет
    Параметр ReFrames формата : 2 кадра
    Параметр GOP формата : M=2, N=90
    Идентификатор кодека : avc1
    Идентификатор кодека/Информация : Advanced Video Coding
    Продолжительность : 44 м.
    Битрейт : 3994 Кбит/сек
    Ширина : 1280 пикселей
    Высота : 718 пикселей
    Соотношение сторон : 16:9
    Режим частоты кадров : Переменный
    Частота кадров : 23, 976 кадра/сек
    Минимальная частота кадров : 23, 810 кадра/сек
    Максимальная частота кадров : 24, 390 кадра/сек
    Цветовое пространство : YUV
    Субдискретизация насыщенности : 4:2:0
    Битовая глубина : 8 бит
    Тип развёртки : Прогрессивная
    Бит/(Пиксели*Кадры) : 0.181
    Размер потока : 1, 23 Гбайт (95%)
    Язык : English
    Основные цвета : BT.709
    Характеристики трансфера : BT.709
    Коэффициенты матрицы : BT.709
    Аудио
    Идентификатор : 2
    Формат : AAC
    Формат/Информация : Advanced Audio Codec
    Профиль формата : LC
    Идентификатор кодека : 40
    Продолжительность : 44 м.
    Вид битрейта : Постоянный
    Битрейт : 192 Кбит/сек
    Каналы : 2 канала
    Расположение каналов : Front: L R
    Частота : 48, 0 КГц
    Метод сжатия : С потерями
    Размер потока : 60, 7 Мбайт (5%)
    Заголовок : AlexFilm
    Язык : Russian


    Скриншоты для ознакомления




    Викинги/Vikings (2016) WEB-DLRip [H.264] (Сезон 4, серии 1-2 из 20) AlexFilm [MP4|1280x718]
    загрузка...
    Рейтинг →
     (голосов: 1, оценка 3/5, голосовать можно 1 раз )

    Другие торренты по теме:

  • Викинги / Vikings (2014) BD-Remux [1080p] (сезон 2, серии 1-10 из 10) (AlexFilm, NewStudio, LostFilm, BaibaKo) скачать через торрент бесплатно
  • Викинги / Vikings (2015) HDTVRip [H.264 / 720p-LQ] (сезон 3, серии 1 из 10) (AlexFilm) (обновляемая)
  • Викинги / Vikings (2015) HDTVRip (сезон 3, серии 1 из 10) AlexFilm (обновляемая)
  • Викинги / Vikings (2015) WEB-DL [H.264 / 1080p-LQ] (сезон 3, серии 1 из 10) LostFilm (обновляемая)
  • Викинги / Vikings (2015) WEB-DLRip (сезон 3, серии 1 из 10) LostFilm (обновляемая)
  • Викинги / Vikings (2013-2015) WEB-DLRip [H.264] (сезон 1-3, серии 1-20 из 29) (BaibaKo) (обновляемая)
  • Викинги / Vikings (2015) WEB-DL [H.264 / 1080p-LQ] (сезон 3, серии 1 из 10) (BaibaKo) (обновляемая) скачать через торрент бесплатно
  • Викинги / Vikings (2015) WEB-DL [H.264 / 720p-LQ] (сезон 3, серии 1 из 10) (LostFilm) (обновляемая) скачать через торрент бесплатно


    • Комментарии (0):

      Информация

      Информация

        Посетители, находящиеся в группе Гости, не могут оставлять комментарии в данной новости.

        ↓ Меню




        ↓ Опрос

        Вы добавили сайт в закладки?
        Да
        Нет


        Top 10 за месяц (КПК и мобильные)