.
Авторизация | Регистрация
Хочешь лучшие торренты? Добавь свой email!
Добавить

Торрент скачать бесплатно

» » Испугай Pewdiepie / Scare Pewdiepie (2016) WEB-DLRip [H.264] (серии 1 из ) [MP4|1920x1080] [EN / RUS SUB] скачать торрент бесплатно




    Испугай Pewdiepie / Scare Pewdiepie (2016) WEB-DLRip [H.264] (серии 1 из ) [MP4|1920x1080] [EN / RUS SUB] скачать торрент бесплатно

    Опубликовал: Админ | Дата: 16-02-2016, 04:01 | Просмотров: 190

    Производство: США
    Жанр: Комедия
    Режиссер: Jon Nealon, будто капли серебряной воды, Jenny Raskin
    Актеры: Felix Kjellberg, как колыбельная песня, David Storrs

    Описание

    Это реалити - шоу от создателя и словно музыка исполнительньного продюсера The Walking Dead в котором PewDiePie ( Felix Kjellberg ) ожидают острые ощущения , словно птица, страх и как над жаровней, смех уже не в играх а наяву.

    Дата мировой премьеры: 10.02.2016
    Продолжительность: 00: 23: 16
    Качество видео: WEB-DLRip
    Перевод: Отсутствует
    Язык: Английский
    Вид субтитров: Вшитые неотключаемые
    Язык субтитров: Русский
    Видео: AVC/H.264, темно как ночью, 1920x1080, как обычно, ~9163 Kbps
    Аудио: ALAC, как зеркало стальное, 2 ch, как правило, 1177 Kbps, как на иголках, VBR
    Код:

    General
    Complete name : C:pewdiepieScare Pewdiepie Level 1.mp4
    Format : MPEG-4
    Codec ID : M4V
    File size : 1.68 GiB
    Duration : 23mn 16s
    Overall bit rate mode : Variable
    Overall bit rate : 10.3 Mbps
    Writing application : Lavf57.0.100
    Video
    ID : 1
    Format : AVC
    Format/Info : Advanced Video Codec
    Format profile : Baseline@L4
    Format settings, обычно, CABAC : No
    Format settings, словно майская роза, ReFrames : 1 frame
    Format settings, привычно, GOP : M=1, как принято, N=10
    Codec ID : avc1
    Codec ID/Info : Advanced Video Coding
    Duration : 23mn 16s
    Bit rate mode : Variable
    Bit rate : 9 163 Kbps
    Width : 1 920 pixels
    Height : 1 080 pixels
    Display aspect ratio : 16:9
    Frame rate mode : Variable
    Frame rate : 20.296 fps
    Minimum frame rate : 12.500 fps
    Maximum frame rate : 25.000 fps
    Color space : YUV
    Chroma subsampling : 4:2:0
    Bit depth : 8 bits
    Scan type : Progressive
    Bits/(Pixel*Frame) : 0.218
    Stream size : 1.49 GiB (89%)
    Audio
    ID : 2
    Format : ALAC
    Codec ID : alac
    Codec ID/Info : Apple Lossless Audio Codec
    Duration : 23mn 16s
    Bit rate mode : Variable
    Bit rate : 1 177 Kbps
    Nominal bit rate : 2 117 Kbps
    Channel(s) : 2 channels
    Sampling rate : 44.1 KHz
    Bit depth : 24 bits
    Stream size : 196 MiB (11%)


    Испугай Pewdiepie/Scare Pewdiepie (2016) WEB-DLRip [H.264] (серии 1 из ) [MP4|1920x1080] [EN/RUS SUB]
    загрузка...
    Рейтинг →
     (голосов: 1, оценка 4/5, голосовать можно 1 раз )

    Другие торренты по теме:



      Комментарии (0):

      Информация

      Информация

        Посетители, находящиеся в группе Гости, не могут оставлять комментарии в данной новости.

        ↓ Меню




        ↓ Опрос

        Вы добавили сайт в закладки?
        Да
        Нет


        Top 10 за месяц (КПК и мобильные)