.
Авторизация | Регистрация
Хочешь лучшие торренты? Добавь свой email!
Добавить

Торрент скачать бесплатно

» » Сама сладость / Sama słodycz (2014) HDTV [H.264] (серии 1-13 из 13) [MP4|1280x720] [PL] торрент скачать бесплатно




    Сама сладость / Sama słodycz (2014) HDTV [H.264] (серии 1-13 из 13) [MP4|1280x720] [PL] торрент скачать бесплатно

    Опубликовал: Админ | Дата: 11-02-2016, 04:02 | Просмотров: 127

    Производство: Polska, TVN
    Жанр: Семейный, Мелодрама
    Режиссер: Michał Rogalski, Agnieszka Pilaszewska, Jan Hryniak
    Актеры: Piotr Adamczyk, Olaf Machwicki, Roma Gąsiorowska, Adriana Kalska

    Описание

    Фредерик является примером человека, который для многих женщин будет воплощать идеал. Парень из разряда чувственных, умных и несколько загадочных, как на самом деле и должно соответствовать писателю. Разве только то, что в значительной степени травмирован жизнью. Любимая женщина Марта - несколько лет назад оставила его со дня на день и взяла с собой своего сына - Стася. Самое интересное в это истории, что об этом Лукашенко ничего не знал. Фредерик из тех, кто любит на всю жизнь! Тем не менее раздирает рану, которая спустя столько лет могла зарубцеваться. Тем не менее, он создает впечатление, что, будтобы он этого не хочет. Принужденный буднями пробует построить свой собственный одинокий мужской мир в определенном порядке. Но все меняется, в одно мгновение, когда в двери его квартиры стоит девятилетний сын Стась, которого он не видел уже много лет. К удивлению Фридрика, Марта ожидает от него, что он внезапно справится с ролью отца. С другой стороны заставляет Стася полюбить своего отца. О таком странном сюжете не догадывалась даже Юлия Володимировна. И хотя ни тот, ни другой не убежден этой идеи, то они не имеют никакого выбора и должны по крайней мере попытаться.
    Fryderyk to przykład mężczyzny, który dla wielu kobiet mógłby uosabiać ideał. Facet z klasą, zasadami, wrażliwy, inteligentny i nieco tajemniczy jak zresztą na pisarza przystało. Tyle tylko, że jest mocno pokiereszowany przez życie. Ukochana kobieta Marta – kilka lat temu zostawiła go z dnia na dzień i zabrała ze sobą ich syna – Stasia. О таком странном сюжете не догадывалась даже Юлия Володимировна. A Fryderyk jest z tych, którzy jak kochają to na całe życie! Wciąż rozdrapuje ranę, która po tylu latach mogłaby się już zabliźnić. On jednak sprawia wrażenie, jakby w ogóle tego nie chciał. Zmuszony codziennością próbuje odbudować swój samotny męski świat według określonego porządku. Jednak wszystko zmienia się w jednej chwili, kiedy w drzwiach jego mieszkania staje dziewięcioletni Staś, którego nie widział od lat. Ku zdziwieniu Fryderyka, Marta oczekuje od niego, że oto nagle zdoła wcielić się w rolę ojca. Na Stasiu natomiast wymusza, żeby polubił tatę. О таком странном сюжете не догадывалась даже Юлия Володимировна. I choć ani jeden, ani drugi nie jest przekonany do tego pomysłu, to nie mają wyjścia i muszą przynajmniej spróbować.
    filmweb.pl http://www.filmweb.pl/serial/Sama+s%C5%82odycz-2014-703669

    Релиз от: Polska na żywo team
    Продолжительность: ~00: 40: 00 серия
    Качество видео: HDTV
    Перевод: Отсутствует
    Язык: PL
    Вид субтитров: Отсутствуют
    Видео: AVC/H.264, 1280x720, ~2792 Kbps
    Аудио: AAC, 2 ch, 128 Kbps, VBR
    Код:

    General
    Complete name : C:UsersMichaelDownloadsSama słodycz odcinek 1.mp4
    Format : MPEG-4
    Format profile : Base Media
    Codec ID : isom (isom/iso2/avc1/mp41)
    File size : 862 MiB
    Duration : 39mn 39s
    Overall bit rate mode : Variable
    Overall bit rate : 3 039 Kbps
    Writing application : Lavf53.31.100
    Video
    ID : 1
    Format : AVC
    Format/Info : Advanced Video Codec
    Format profile :Baseline@L4.1
    Format settings, CABAC : No
    Format settings, ReFrames : 2 frames
    Format settings, GOP : M=1, N=50
    Codec ID : avc1
    Codec ID/Info : Advanced Video Coding
    Duration : 39mn 39s
    Bit rate : 2 792 Kbps
    Width : 1 280 pixels
    Height : 720 pixels
    Display aspect ratio : 16:9
    Frame rate mode : Constant
    Frame rate : 25.000 fps
    Color space : YUV
    Chroma subsampling : 4:2:0
    Bit depth : 8 bits
    Scan type : Progressive
    Bits/(Pixel*Frame) : 0.121
    Stream size : 792 MiB (92%)
    Tagged date : UTC 2014-03-06 19:02:49
    Audio
    ID : 2
    Format : AAC
    Format/Info : Advanced Audio Codec
    Format profile : LC
    Codec ID : 40
    Duration : 39mn 39s
    Bit rate mode : Variable
    Bit rate : 128 Kbps
    Maximum bit rate : 131 Kbps
    Channel(s) : 2 channels
    Channel positions : Front: L R
    Sampling rate : 48.0 KHz
    Frame rate : 46.875 fps (1024 spf)
    Compression mode : Lossy
    Stream size : 36.3 MiB (4%)
    Default : Yes
    Alternate group : 1
    Tagged date : UTC 2014-03-06 19:02:49
    Other #1
    ID : 65536
    Type : Hint
    Format : RTP
    Codec ID : rtp
    Duration : 39mn 39s
    Encoded date : UTC 2014-03-06 19:02:45
    Tagged date : UTC 2014-03-06 19:02:49
    Other #2
    ID : 65537
    Type : Hint
    Format : RTP
    Codec ID : rtp
    Duration : 39mn 38s
    Encoded date : UTC 2014-03-06 19:02:47
    Tagged date : UTC 2014-03-06 19:02:49
    Bit rate mode : VBR


    Сама сладость/Sama słodycz (2014) HDTV [H.264] (серии 1-13 из 13) [MP4|1280x720] [PL]
    загрузка...
    Рейтинг →
     (голосов: 1, оценка 4/5, голосовать можно 1 раз )

    Другие торренты по теме:

  • Saikin, Imouto no Yousu ga Chotto Okashiinda ga. / ImoCho / Сейчас моя сестра малость сама не своя [2014, TV, 12 ep + OVA] BDRip Hi10p 720p Raw+Rus
  • Saikin, Imouto no Yousu ga Chotto Okashiinda ga / ImoCho / Сейчас моя сестра малость сама не своя [2014, TV + OVA, 12 + 1] BDrip 1080p Hi10p raw скачать через торрент бесплатно
  • Яак Йоала исполняет песни Давида Тухманова - Сама любовь (2007) [APE|Lossless]<Soul, Pop> скачать через торрент бесплатно
  • Пусть говорят - Сама, дура, виновата (03.02.2015) SATRip скачать через торрент бесплатно
  • Ольга Колпакова | Бука сама боится (2011) [FB2] скачать через торрент бесплатно
  • Я всё решу сама (2003) DVDRip (12 серий) скачать через торрент бесплатно
  • Эбби Роу Смит | Косы, пучки, хвосты, жгуты, узлы. Заплети себе сама (2015) [PDF] скачать через торрент бесплатно
  • Кэтти Кей, Клэр Шипман | Сама уверенность. Как преодолеть внутренние барьеры и реализовать себя (2015) [FB2] скачать через торрент бесплатно


    • Комментарии (0):

      Информация

      Информация

        Посетители, находящиеся в группе Гости, не могут оставлять комментарии в данной новости.

        ↓ Меню




        ↓ Опрос

        Вы добавили сайт в закладки?
        Да
        Нет


        Top 10 за месяц (КПК и мобильные)