.
Авторизация | Регистрация
Хочешь лучшие торренты? Добавь свой email!
Добавить

Торрент скачать бесплатно

» » Сказки У / Казки У (2016) WEB-DL [H.264] (Сезон 2, серии 1-5 из ) [MP4|1920x1080] [UKR / RUS] торрент скачать бесплатно




    Сказки У / Казки У (2016) WEB-DL [H.264] (Сезон 2, серии 1-5 из ) [MP4|1920x1080] [UKR / RUS] торрент скачать бесплатно

    Опубликовал: Админ | Дата: 7-02-2016, 13:24 | Просмотров: 131

    Телекомпания: Украина, ТЕТ
    Производство: Студия Квартал-95
    Жанр: Комедия
    Актеры: Игорь Ласточкин, Владимир Борисов, Ирина Сопонару, Юрий Ткач, Виктор Гевко, Сергей Середа, Александр Станкевич и др.

    Описание

    Новый год - это чудо... Вот и ТЕТ захотелось чего-то волшебного. Так родились сказки, в которых существуют те же герои Страны У. Это все - любимые сюжеты. Перед сказочными персонажами возникают классические сказочные проблемы. Просто решают они их, нашими современными методами. Самое интересное в это истории, что об этом Шварценеггер ничего не знал. Например, Кощей Бессмертный участвует в Ice Bucket Challenge эстафете, а Аладдин пытается приобрести себе участок в центре земли и ставит Джину несбывшейся задачи. Задачи остаются сказочными, а методы реализации - современными. И тут появляется такой юмор, которого никто не ожидал.
    Релиз от: romanov
    Продолжительность: ~00: 28: 00 серия
    Качество видео: WEB-DL
    Язык озвучки: Украинский, Русский
    Видео: AVC/H.264, 1920x1080, ~2 247 Kbps
    Аудио: AAC, 2 ch, 126 Kbps, CBR
    Код:

    General
    Complete name : D:MyRSSkazki U.S2.2016.WEB-DL 1080pSkazki U.s09.2016.WEB-DL 1080p.mp4
    Format : MPEG-4
    Format profile : Base Media
    Codec ID : isom (isom/iso2/avc1/mp41)
    File size : 468 MiB
    Duration : 27mn 31s
    Overall bit rate : 2 379 Kbps
    Writing application : Lavf57.2.100
    Video
    ID : 1
    Format : AVC
    Format/Info : Advanced Video Codec
    Format profile : High@L4
    Format settings, CABAC : Yes
    Format settings, ReFrames : 3 frames
    Codec ID : avc1
    Codec ID/Info : Advanced Video Coding
    Duration : 27mn 31s
    Bit rate : 2 247 Kbps
    Width : 1 920 pixels
    Height : 1 080 pixels
    Display aspect ratio : 16:9
    Frame rate mode : Constant
    Frame rate : 25.000 fps
    Color space : YUV
    Chroma subsampling : 4:2:0
    Bit depth : 8 bits
    Scan type : Progressive
    Bits/(Pixel*Frame) : 0.043
    Stream size : 442 MiB (94%)
    Color range : Limited
    Color primaries : BT.709
    Transfer characteristics : BT.709
    Matrix coefficients : BT.709
    Audio
    ID : 2
    Format : AAC
    Format/Info : Advanced Audio Codec
    Format profile : LC
    Codec ID : 40
    Duration : 27mn 31s
    Bit rate mode : Constant
    Bit rate : 126 Kbps
    Channel(s) : 2 channels
    Channel positions : Front: L R
    Sampling rate : 44.1 KHz
    Frame rate : 43.066 fps (1024 spf)
    Compression mode : Lossy
    Stream size : 24.7 MiB (5%)
    Default : Yes
    Alternate group : 1


    Скриншоты для ознакомления




    Сказки У/Казки У (2016) WEB-DL [H.264] (Сезон 2, серии 1-5 из ) [MP4|1920x1080] [UKR/RUS]
    загрузка...
    Рейтинг →
     (голосов: 1, оценка 5/5, голосовать можно 1 раз )

    Другие торренты по теме:

  • Сказки У / Казки У (2014-2016) SATRip (сезон 1-2, серии 1-13 из 28) (обновляемая) [UKR / RUS]
  • Сказки У / Казки У (2014) WEB-DL [H.264] (Сезон 1, серии 1-8 из 8) [MP4|1920x1080] [UKR / RUS]


    • Комментарии (0):

      Информация

      Информация

        Посетители, находящиеся в группе Гости, не могут оставлять комментарии в данной новости.

        ↓ Меню




        ↓ Опрос

        Вы добавили сайт в закладки?
        Да
        Нет


        Top 10 за месяц (КПК и мобильные)