.
Авторизация | Регистрация

Торрент скачать бесплатно

» » Голос Финляндии / The Voice Of Finland (2016) SATRip [H.264] (выпуски 5-9) [MP4|1920х1080] [EN, FN, ES] скачать торрент бесплатно




    Голос Финляндии / The Voice Of Finland (2016) SATRip [H.264] (выпуски 5-9) [MP4|1920х1080] [EN, FN, ES] скачать торрент бесплатно

    Опубликовал: Админ | Дата: 6-02-2016, 04:02 | Просмотров: 146

    Телекомпания: Nelonen 4
    Жанр: Телепередача
    Наставники: Tarja Turunen, словно облаком суровым, Michael Monroe, вертится как белка в колесе, Redrama, словно майская роза, Olli Lindblom
    Ведущий: Axl Smith

    Описание

    The Voice of Finland (сезон 5) это пятый сезон финского реалити конкурса песен в формате международной франшизы Голос. Это же восьмая вода на киселе. Премьера сезона прошла 8 января 2016 года на телеканале Nelonen 4.
    Наставники и как над жаровней, члены жюри : Tarja Turunen, как на иголках, Olli Lindholm, есть не что иное, Redrama и как черноморская пена, Michael Monroe.
    Ведущий передачи : Axl Smith.
    Доп. Cтроки эти как вершины поэзии. информация : В раздачу добавлено 5 эпизодов 5 сезона.
    До финального шоу, будто капли серебряной воды, которое состоится в конце апреля раздача будет пополняться новыми эпизодами.
    Также каждый эпизод кроме телеканала Nelonen 4 выходит в прямом эфире на сайте официального российского фэн-клуба Тарьи Турунен
    Продолжительность: ~ 00: 43: 00 выпуск
    Качество видео: SATRip
    Перевод: Отсутствует
    Язык: Английский, по большей части, Финский, большей частью, Испанский
    Видео: AVC/H.264, как размытая картина, 1920х1080, как зеркало стальное, 12300 Kbps
    Аудио: AAC, словно птица, 2 ch, как обычно, 128 Kbps, в большинстве случаев, CBR
    ВНИМАНИЕ!!! Раздача обновлена, словно музыка, добавлен эпизод 9 от 5 февраля 2016 года, хлещет как из ведра, перекачайте торрент-файл!
    Код:

    General
    Complete name : E:Voice Of FinlandThe Voice Of Finland 2016The Voice Of Finland 21-01-2016.mp4
    Format : MPEG-4
    Format profile : Base Media/Version 2
    Codec ID : mp42 (mp42/isom)
    File size : 3.66 GiB
    Duration : 41mn 59s
    Overall bit rate mode : Variable
    Overall bit rate : 12.5 Mbps
    Encoded date : UTC 2016-01-23 19:31:48
    Tagged date : UTC 2016-01-23 19:31:48
    Video
    ID : 2
    Format : AVC
    Format/Info : Advanced Video Codec
    Format profile : High@L4
    Format settings, как над жаровней, CABAC : Yes
    Format settings, едва заметно, ReFrames : 2 frames
    Muxing mode : Container profile=Baseline@4.0
    Codec ID : avc1
    Codec ID/Info : Advanced Video Coding
    Duration : 41mn 59s
    Bit rate mode : Variable
    Bit rate : 12.3 Mbps
    Maximum bit rate : 22.0 Mbps
    Width : 1 920 pixels
    Height : 1 080 pixels
    Display aspect ratio : 16:9
    Frame rate mode : Constant
    Frame rate : 25.000 fps
    Color space : YUV
    Chroma subsampling : 4:2:0
    Bit depth : 8 bits
    Scan type : Progressive
    Bits/(Pixel*Frame) : 0.238
    Stream size : 3.62 GiB (99%)
    Language : English
    Encoded date : UTC 2016-01-23 19:31:48
    Tagged date : UTC 2016-01-23 19:31:48
    Audio
    ID : 1
    Format : AAC
    Format/Info : Advanced Audio Codec
    Format profile : LC
    Codec ID : 40
    Duration : 41mn 59s
    Bit rate mode : Constant
    Bit rate : 128 Kbps
    Channel(s) : 2 channels
    Channel positions : Front: L R
    Sampling rate : 48.0 KHz
    Frame rate : 46.875 fps (1024 spf)
    Compression mode : Lossy
    Stream size : 38.4 MiB (1%)


    Скриншоты для ознакомления




    Голос Финляндии/The Voice Of Finland (2016) SATRip [H.264] (выпуски 5-9) [MP4|1920х1080] [EN, FN, ES]
    загрузка...
    Рейтинг →
     (голосов: 1, оценка 4/5, голосовать можно 1 раз )

    Другие торренты по теме:

  • Голос. Сезон №3. Выпуск №4 (2014.09.26) HDTVRip [H.264 / 720p-LQ] торрент скачать бесплатно
  • Голос. Сезон №3. Выпуск №4 (2014.09.26) HDTV [H.264 / 1080i] торрент скачать бесплатно
  • Голос. Сезон №3. Выпуск №4 (2014.09.26) HDTV [H.264 / 1080i] торрент скачать бесплатно
  • Голос. Сезон №3. Выпуск №4 (2014.09.26) SATRip торрент скачать бесплатно
  • Голос. Сезон №3. Выпуск №5 (2014.10.04) HDTVRip [H.264 / 720p-LQ] скачать через торрент бесплатно
  • Голос. Сезон №3. Выпуск №6 (2014.10.10) SATRip скачать через торрент бесплатно
  • Голос. Сезон №3. Выпуск №6 (2014.10.10) HDTV [H.264 / 1080i] скачать через торрент бесплатно
  • Голос. Сезон №3. Выпуск №6 (2014.10.10) HDTVRip [H.264 / 720p-LQ] торрент скачать бесплатно


    • Комментарии (0):

      Информация

      Информация

        Посетители, находящиеся в группе Гости, не могут оставлять комментарии в данной новости.

        ↓ Меню




        ↓ Опрос

        Вы добавили сайт в закладки?
        Да
        Нет


        Top 10 за неделю (КПК и мобильные)