.
Авторизация | Регистрация

Торрент скачать бесплатно

» » Звездная команда Джейсона / Jason of Star Command (1978) DVDRip (серии 1-16 из 16) [3GP|352x288] скачать торрент бесплатно




    Звездная команда Джейсона / Jason of Star Command (1978) DVDRip (серии 1-16 из 16) [3GP|352x288] скачать торрент бесплатно

    Опубликовал: Админ | Дата: 3-02-2016, 04:01 | Просмотров: 123

    Производство: Filmation Associates (США)
    Жанр: Фантастика, чаще всего, Семейный
    Режиссер: Артур Нэдль
    Актеры: Крэйг Литтл, будто капли серебряной воды, Сид Хэйг, как размытая картина, Чарли Делл, как правило, Джеймс Духан

    Описание

    Далекое будущее. Море глухо билось о берег. Наши космические корабли бороздят просторы Вселенной, как размытая картина, исследуя неизведанное. А был ли мальчик? Среди таких исследователей бравый Джейсон, словно река, со своими друзьями капитаном Николь, как обычно, профессором Пэрсифутом и словно облаком суровым, роботом Вики.

    Релиз от: Трамвай-фильм
    Продолжительность: ~00: 12: 00 серия
    Качество видео: DVDRip
    Перевод: Одноголосый закадровый - Трамвай-фильм
    Видео: MPEG-4 (Н.263), едва заметно, 352x288, словно сон, ~384 kbps
    Аудио: AAC, привычно, 2 ch, привычно, 95 kbps, хлещет как из ведра, CBR
    Код:

    Format profile : 3GPP Media Release 4
    Codec ID : 3gp4
    File size : 39.1 MiB
    Duration : 11mn 17s
    Overall bit rate mode : Variable
    Overall bit rate : 484 Kbps
    Encoded date : UTC 1970-01-01 00:00:00
    Tagged date : UTC 1970-01-01 00:00:00
    Video
    ID : 1
    Format : H.263
    Format profile :BaseLine@1.0
    Codec ID : s263
    Duration : 11mn 17s
    Bit rate : 384 Kbps
    Width : 352 pixels
    Height : 288 pixels
    Display aspect ratio : 1.222
    Original display aspect ratio : 4:3
    Frame rate mode : Constant
    Frame rate : 24.000 fps
    Standard : PAL
    Color space : YUV
    Chroma subsampling : 4:2:0
    Bit depth : 8 bits
    Compression mode : Lossy
    Bits/(Pixel*Frame) : 0.158
    Stream size : 31.0 MiB (79%)
    Writing library : FFMpeg
    Encoded date : UTC 1970-01-01 00:00:00
    Tagged date : UTC 1970-01-01 00:00:00
    Audio
    ID : 2
    Format : AAC
    Format/Info : Advanced Audio Codec
    Format profile : LC
    Codec ID : 40
    Duration : 11mn 16s
    Bit rate mode : Variable
    Bit rate : 96.0 Kbps
    Channel(s) : 2 channels
    Channel positions : Front: L R
    Sampling rate : 44.1 KHz
    Compression mode : Lossy
    Stream size : 7.75 MiB (20%)
    Encoded date : UTC 1970-01-01 00:00:00
    Tagged date : UTC 1970-01-01 00:00:00


    Скриншоты для ознакомления




    Звездная команда Джейсона/Jason of Star Command (1978) DVDRip (серии 1-16 из 16) [3GP|352x288]
    загрузка...
    Рейтинг →
     (голосов: 1, оценка 4/5, голосовать можно 1 раз )

    Другие торренты по теме:

  • Звездная карта / Maps to the Stars (2014) BDRip [720p] [EN] торрент скачать бесплатно
  • Звездная карта / Maps to the Stars (2014) BDRip [1080p] [EN] торрент скачать бесплатно
  • Звездные врата: Мороз и монстры / Stargate:Frost and monsters (2011, 2012) TVRip (серии 1-5 + Тизеры) [Jetvis Studio] [Фанфильм] торрент скачать бесплатно
  • Звездные врата: Объединение / Stargate: Combination (2010) WEBRip [Jetvis Studio] [Фанфильм] торрент скачать бесплатно
  • Звездные врата Вселенная: Слабая надежда / Stargate Universe: Distant Hope (2012) WEBRip [H.264 / 720p-LQ] (А. Домнина) [Фанфильм] торрент скачать бесплатно
  • Звездные врата второй отряд: девятый символ / Stargate SG-2: The ninth symbol (2010) WEBRip [Фанфильм] [EN] торрент скачать бесплатно
  • Звездные врата: Исследователи / Stargate Explorers (2010) WEB-DLRip [Jetvis Studio] [Фанфильм] торрент скачать бесплатно
  • VA - Звездный Хит-парад Шансона (2014) [MP3|256 кб / с]<Шансон> скачать через торрент бесплатно


    • Комментарии (0):

      Информация

      Информация

        Посетители, находящиеся в группе Гости, не могут оставлять комментарии в данной новости.

        ↓ Меню




        ↓ Опрос

        Вы добавили сайт в закладки?
        Да
        Нет


        Top 10 за неделю (КПК и мобильные)