.
Авторизация | Регистрация
Хочешь лучшие торренты? Добавь свой email!
Добавить

Торрент скачать бесплатно

» » Однажды (2013) HDTVRip [H.264] [MP4|1920х1080] торрент скачать бесплатно




    Однажды (2013) HDTVRip [H.264] [MP4|1920х1080] торрент скачать бесплатно

    Опубликовал: Админ | Дата: 2-02-2016, 04:02 | Просмотров: 169

    Производство: Россия/ Реал-Дакота, Интерфест
    Жанр: Мелодрама, Комедия, Драма
    Режиссер: Ренат Давлетьяров
    Актеры: Сергей Гармаш, Андрей Мерзликин, Фархад Абдраимов, Юрий Дейнекин, Дарья Мельникова, Никита Калинин, Александр Мельников, Артур Мухамадияров, Михаил Тройник, Кристина Бабушкина, Аполлинария Муравьёва, Анатолий Шульев, Алена Каримская, Сергей Бадасян.

    Описание

    Однажды Лешка понял, что влюблен. В бывшую девушку брата. Ему еще не было и 16-ти, а ей уже исполнилось 17. Она носила очень короткую юбку и ходила гулять с ребятами из другого района. Впереди у Лешки был последний звонок, последний год жизни в городке и первое серьезное испытание. Он согласился с Таней на пари: проигравший обязан исполнить любое желание победителя…

    Продолжительность: 01: 34: 45
    Качество видео: HDTVRip
    Видео: AVC/H.264, 1920х1080, ~2029 Kbps
    Аудио: AAC, 2 ch, 126 Kbps, CBR
    Код:

    General
    Complete name : C:DownloadsОднажды.mp4
    Format : MPEG-4
    Format profile : Base Media
    Codec ID : isom
    File size : 1.43 GiB
    Duration : 1h 34mn
    Overall bit rate : 2 161 Kbps
    Writing application : Lavf55.19.104
    Video
    ID : 1
    Format : AVC
    Format/Info : Advanced Video Codec
    Format profile : High@L4
    Format settings, CABAC : Yes
    Format settings, ReFrames : 3 frames
    Codec ID : avc1
    Codec ID/Info : Advanced Video Coding
    Duration : 1h 34mn
    Bit rate : 2 029 Kbps
    Width : 1 920 pixels
    Height : 1 080 pixels
    Display aspect ratio : 16:9
    Frame rate mode : Constant
    Frame rate : 25.000 fps
    Color space : YUV
    Chroma subsampling : 4:2:0
    Bit depth : 8 bits
    Scan type : Progressive
    Bits/(Pixel*Frame) : 0.039
    Stream size : 1.34 GiB (94%)
    Color range : Limited
    Color primaries : BT.709
    Transfer characteristics : BT.709
    Matrix coefficients : BT.709
    Audio
    ID : 2
    Format : AAC
    Format/Info : Advanced Audio Codec
    Format profile : LC
    Codec ID : 40
    Duration : 1h 34mn
    Bit rate mode : Constant
    Bit rate : 126 Kbps
    Channel(s) : 2 channels
    Channel positions : Front: L R
    Sampling rate : 44.1 KHz
    Compression mode : Lossy
    Stream size : 85.1 MiB (6%)


    Скриншоты для ознакомления




    Однажды (2013) HDTVRip [H.264] [MP4|1920х1080]
    загрузка...
    Рейтинг →
     (голосов: 1, оценка 5/5, голосовать можно 1 раз )

    Другие торренты по теме:

  • Однажды на свидании / Its A Date (2013) HDTVRip (Сезон 1, серии 1-4 из 8) [datynet & selena] (обновляемая)
  • Однажды в сказке / В Некотором Царстве / Once Upon A Time (2014) HDTVRip [сезон 4, серия 1 из ] LevshaFilm
  • Однажды в Ростове (2012) HDTVRip [H.264] (серии 1-24 из 24) скачать через торрент бесплатно
  • Однажды в Ростове (2012) HDTVRip [H.264 / 720p] (серии 1-24 из 24) скачать через торрент бесплатно
  • Однажды преступив черту (2015) HDTVRip скачать через торрент бесплатно
  • Однажды преступив черту (2015) HDTVRip [H.264 / 720р-LQ] скачать через торрент бесплатно
  • Однажды ночью / The Night Of (2016) HDTVRip [H.264 / 720p-LQ] (сезон 1, серии 1 из 8) Coldfilm (Обновляемая)
  • Однажды ночью / Той ночью / The Night Of (2016) HDTVRip (сезон 1, серии 1 из 8) NewStudio (обновляемая)


    • Комментарии (0):

      Информация

      Информация

        Посетители, находящиеся в группе Гости, не могут оставлять комментарии в данной новости.

        ↓ Меню




        ↓ Опрос

        Вы добавили сайт в закладки?
        Да
        Нет


        Top 10 за месяц (КПК и мобильные)