.
Авторизация | Регистрация
Хочешь лучшие торренты? Добавь свой email!
Добавить

Торрент скачать бесплатно

» » Адам портит всё / Adam Ruins Everything (2015) HDTVRip [H.264] (сезон 1, серии 1-12 из 12) [MP4 720x404] [EN] торрент скачать бесплатно




    Адам портит всё / Adam Ruins Everything (2015) HDTVRip [H.264] (сезон 1, серии 1-12 из 12) [MP4 720x404] [EN] торрент скачать бесплатно

    Опубликовал: Админ | Дата: 2-02-2016, 04:02 | Просмотров: 278

    Производство: США
    Жанр: Комедия
    Режиссер: Пол Бриганти, Винсент Пеон, Джош Рубен
    Актеры: Кэтрин Паркинсон, Люси Хатчинсон, Рентон Скиннер, Эмма Пирсон, Гарри Пикок, Триксибелл Харроуэлл, Eliana Sparrow, Каспер Олпресс, Клайв Роу, Шола Адевузи и др.

    Описание

    Неприглядная правда о том, что дорого вашему сердцу.
    Адам Коновер рушит стереотипы, навязанные обществом, телевидением и соседями. Работа, секс, машины, рестораны, терроризм и благотворительность – все знания об этом подвергаются серьезному сомнению в выпусках популярного шоу Адам портит всё

    Продолжительность: ~ 00: 21: 00 серия
    Качество видео: HDTVRip
    Перевод: Отсутствует
    Язык: Английский
    Видео: AVC/H.264, 720x404, ~1121 Кбит/сек
    Аудио: AAC, 2 ch, 161 Кбит/сек
    Код:

    Формат : MPEG-4
    Профиль формата : Base Media/Version 2
    Идентификатор кодека : mp42
    Размер файла : 194 Мбайт
    Продолжительность : 21 м.
    Режим общего битрейта : Переменный
    Общий поток : 1288 Кбит/сек
    Дата кодирования : UTC 2036-02-06 06:28:16
    Дата пометки : UTC 2036-02-06 06:28:16
    Программа кодирования : HandBrake 0.10.2 2015060900
    Видео
    Идентификатор : 1
    Формат : AVC
    Формат/Информация : Advanced Video Codec
    Профиль формата : Main@L4
    Параметр CABAC формата : Да
    Параметр ReFrames формата : 4 кадра
    Идентификатор кодека : avc1
    Идентификатор кодека/Информация : Advanced Video Coding
    Продолжительность : 21 м.
    Битрейт : 1121 Кбит/сек
    Ширина : 720 пикселей
    Высота : 404 пикселя
    Соотношение сторон : 16:9
    Соотношение сторон в оригинале : 16:9
    Режим частоты кадров : Постоянный
    Частота кадров : 29, 970 кадров/сек
    Цветовое пространство : YUV
    Субдискретизация насыщенности : 4:2:0
    Битовая глубина : 8 бит
    Тип развёртки : Прогрессивная
    Бит/(Пиксели*Кадры) : 0.129
    Размер потока : 168 Мбайт (87%)
    Библиотека кодирования : x264 core 142 r2479 dd79a61
    Настройки программы : cabac=1/ref=1/deblock=1:0:0/analyse=0x1:0x111/me=hex/subme=2/psy=1/psy_rd=1.00:0.00/mixed_ref=0/me_range=16/chroma_me=1/trellis=0/8x8dct=0/cqm=0/deadzone=21, 11/fast_pskip=1/chroma_qp_offset=0/threads=12/lookahead_threads=3/sliced_threads=0/nr=0/decimate=1/interlaced=0/bluray_compat=0/constrained_intra=0/bframes=3/b_pyramid=2/b_adapt=1/b_bias=0/direct=1/weightb=1/open_gop=0/weightp=1/keyint=300/keyint_min=30/scenecut=40/intra_refresh=0/rc_lookahead=10/rc=crf/mbtree=1/crf=19.0/qcomp=0.60/qpmin=0/qpmax=69/qpstep=4/vbv_maxrate=20000/vbv_bufsize=25000/crf_max=0.0/nal_hrd=none/filler=0/ip_ratio=1.40/aq=1:1.00
    Дата кодирования : UTC 2036-02-06 06:28:16
    Дата пометки : UTC 2036-02-06 06:28:16
    Цветовой диапазон : Limited
    Основные цвета : BT.709
    Характеристики трансфера : BT.709
    Коэффициенты матрицы : BT.709
    Аудио
    Идентификатор : 2
    Формат : AAC
    Формат/Информация : Advanced Audio Codec
    Профиль формата : LC
    Идентификатор кодека : 40
    Продолжительность : 21 м.
    Вид битрейта : Переменный
    Битрейт : 161 Кбит/сек
    Каналы : 2 канала
    Расположение каналов : Front: L R
    Частота : 48, 0 КГц
    Метод сжатия : С потерями
    Размер потока : 24, 1 Мбайт (12%)
    Заголовок : Stereo/Stereo
    Дата кодирования : UTC 2036-02-06 06:28:16
    Дата пометки : UTC 2036-02-06 06:28:16


    Скриншоты для ознакомления




    Адам портит всё/Adam Ruins Everything (2015) HDTVRip [H.264] (сезон 1, серии 1-12 из 12) [MP4 720x404] [EN]
    загрузка...
    Рейтинг →
     (голосов: 1, оценка 5/5, голосовать можно 1 раз )

    Другие торренты по теме:

  • Адам портит всё / Adam Ruins Everything (2015) HDTVRip [H.264 / 720p-LQ] (сезон 1, серии 1-3 из 12) Ozz (обновляемая) скачать через торрент бесплатно
  • Адам портит всё / Adam Ruins Everything (2016) HDTVRip [H.264] (сезон 2, серии 1-3 из 14) Coldfilm [MP4|1280x720]
  • Адам портит всё / Adam Ruins Everything (2016) HDTVRip [H.264] (сезон 2, серии 1-7 из 14) Ozz [MP4|1280x720]
  • Адам портит всё / Adam Ruins Everything (2017) HDTVRip [H.264 / 720p-LQ] (сезон 2, серии 1-4 из 16) Ozz (обновляемая) [AD]


    • Комментарии (0):

      Информация

      Информация

        Посетители, находящиеся в группе Гости, не могут оставлять комментарии в данной новости.

        ↓ Меню




        ↓ Опрос

        Вы добавили сайт в закладки?
        Да
        Нет


        Top 10 за месяц (КПК и мобильные)