.
Авторизация | Регистрация
Хочешь лучшие торренты? Добавь свой email!
Добавить

Торрент скачать бесплатно

» » Хроники Шаннары / The Shannara Chronicles (2016) WEB-DLRip [H.264] (Сезон 1, серии 1-5 из 10) NewStudio [MP4|720x400] торрент скачать бесплатно




    Хроники Шаннары / The Shannara Chronicles (2016) WEB-DLRip [H.264] (Сезон 1, серии 1-5 из 10) NewStudio [MP4|720x400] торрент скачать бесплатно

    Опубликовал: Админ | Дата: 29-01-2016, 04:01 | Просмотров: 164

    Производство: США/Farah Films, Music Television (MTV), Sonar Entertainment
    Жанр: фантастика, фэнтези, приключения
    Режиссер: Брэд Тернер, Джонатан Либесман, Джеймс Маршалл
    Актеры: Ивана Бакеро, Дэниэл МакФерсон, Джон Рис-Дэвис, Маркус Ванко, Брук Уильямс, Ману Беннетт, Остин Роберт Батлер, Поппи Дрейтон, Аарон Якубенко и др.

    Описание

    События сериала происходят в далёком будущем. Самое интересное в это истории, что об этом Жириновский ничего не знал. Войны разделили Северную Америку на 4 части. На какой-то из них обитают эльфы, на иной — люди, на третьей — тролли и на четвёртой — дворфы. Основными персонажами сериала окажутся отпрыски древнего рода эльфов — Шаннара. Именно от них будет зависеть будущая судьба планеты…

    Продолжительность: ~00: 41: 00 серия
    Качество видео: WEB-DLRip
    Перевод: Многоголосый закадровый, профессиональный -NewStudio
    Видео: AVC/H.264 (Main@L3.0 ), 720x400 (16: 9), ~1536 Кбит/сек
    Аудио #1: AAC, 2 канала, 160 Кбит/сек - русский (многоголосый закадровый)
    Аудио #2: AAC, 2 канала, 160 Кбит/сек - английский (оригинальный)
    Код:

    Полное имя : D:The_Shannara_Chronicles_s1_WEB-DLRip_x264_NewStudio_[NNM-CLUB]The.Shannara.Chronicles.s01e01e02.WEB-DLRip.x264.NewStudio.TV.mp4
    Формат : MPEG-4
    Профиль формата : Base Media
    Идентификатор кодека : isom
    Размер файла : 1, 06 Гбайт
    Продолжительность : 1 ч. 21 м.
    Общий поток : 1864 Кбит/сек
    Видео
    Идентификатор : 1
    Формат : AVC
    Формат/Информация : Advanced Video Codec
    Профиль формата :Main@L3.0
    Параметр CABAC формата : Нет
    Параметр ReFrames формата : 3 кадра
    Идентификатор кодека : avc1
    Идентификатор кодека/Информация : Advanced Video Coding
    Продолжительность : 1 ч. 21 м.
    Битрейт : 1536 Кбит/сек
    Ширина : 720 пикселей
    Высота : 400 пикселей
    Соотношение сторон : 16:9
    Соотношение сторон в оригинале : 16:9
    Режим частоты кадров : Постоянный
    Частота кадров : 25, 000 кадров/сек
    Цветовое пространство : YUV
    Субдискретизация насыщенности : 4:2:0
    Битовая глубина : 8 бит
    Тип развёртки : Прогрессивная
    Бит/(Пиксели*Кадры) : 0.213
    Размер потока : 898 Мбайт (82%)
    Библиотека кодирования : x264 core 146 r2538M 121396c
    Настройки программы : cabac=0/ref=3/deblock=1:0:0/analyse=0x1:0x131/me=hex/subme=7/psy=1/psy_rd=1, 00:0, 20/mixed_ref=1/me_range=16/chroma_me=1/trellis=1/8x8dct=0/cqm=0/deadzone=21, 11/fast_pskip=1/chroma_qp_offset=-3/threads=18/lookahead_threads=3/sliced_threads=0/nr=0/decimate=1/interlaced=0/bluray_compat=0/constrained_intra=0/bframes=0/weightp=2/keyint=250/keyint_min=25/scenecut=0/intra_refresh=0/rc_lookahead=250/rc=2pass/mbtree=1/bitrate=1536/ratetol=1, 0/qcomp=0, 60/qpmin=10/qpmax=51/qpstep=4/cplxblur=20, 0/qblur=0, 5/ip_ratio=1, 40/aq=1:1, 00
    Язык : English
    Основные цвета : BT.709
    Характеристики трансфера : BT.709
    Коэффициенты матрицы : BT.709
    Аудио #1
    Идентификатор : 2
    Формат : AAC
    Формат/Информация : Advanced Audio Codec
    Профиль формата : LC
    Идентификатор кодека : 40
    Продолжительность : 1 ч. 21 м.
    Вид битрейта : Постоянный
    Битрейт : 160 Кбит/сек
    Каналы : 2 канала
    Расположение каналов : Front: L R
    Частота : 48, 0 КГц
    Метод сжатия : С потерями
    Размер потока : 93, 5 Мбайт (9%)
    Язык : Russian
    Аудио #2
    Идентификатор : 3
    Формат : AAC
    Формат/Информация : Advanced Audio Codec
    Профиль формата : LC
    Идентификатор кодека : 40
    Продолжительность : 1 ч. 21 м.
    Вид битрейта : Постоянный
    Битрейт : 160 Кбит/сек
    Каналы : 2 канала
    Расположение каналов : Front: L R
    Частота : 48, 0 КГц
    Метод сжатия : С потерями
    Размер потока : 93, 5 Мбайт (9%)
    Язык : English


    Скриншоты для ознакомления




    Хроники Шаннары/The Shannara Chronicles (2016) WEB-DLRip [H.264] (Сезон 1, серии 1-5 из 10) NewStudio [MP4|720x400]
    загрузка...
    Рейтинг →
     (голосов: 1, оценка 3/5, голосовать можно 1 раз )

    Другие торренты по теме:

  • Хроники Шаннары / The Shannara Chronicles (2016) WEB-DLRip (сезон 1, серии 1-2 из 10) BaibaKo (обновляемая) скачать через торрент бесплатно
  • Хроники Шаннары / The Shannara Chronicles (2016) WEB-DLRip (сезон 1, серии 1-2 из 10) NewStudio (обновляемая) скачать через торрент бесплатно
  • Хроники Шаннары / The Shannara Chronicles (2016) WEB-DL [H.264 / 720p-LQ] (сезон 1, серии 1-4 из 10) BaibaKo (обновляемая) скачать через торрент бесплатно
  • Хроники Шаннары / The Shannara Chronicles (2016) WEB-DLRip [H.264] (Сезон 1, серии 1-4 из 10) BaibaKo [MP4|720x400] скачать через торрент бесплатно
  • Хроники Шаннары / The Shannara Chronicles (2016) WEB-DLRip (сезон 1, серии 1 из 10) LostFilm (обновляемая) скачать через торрент бесплатно
  • Хроники Шаннары / The Shannara Chronicles (2016) WEB-DLRip [H.264] (Сезон 1, серии 1 из 10) LostFilm [MP4|1280x718]
  • Хроники Шаннары / The Shannara Chronicles (2016) WEB-DL [H.264 / 720p-LQ] (сезон 1, серии 1-2 из 10) (LostFilm) (обновляемая)
  • Хроники Шаннары / The Shannara Chronicles (2016) WEB-DL [H.264 / 1080p-LQ] (сезон 1, серии 1-4 из 10) (NewStudio) (обновляемая)


    • Комментарии (0):

      Информация

      Информация

        Посетители, находящиеся в группе Гости, не могут оставлять комментарии в данной новости.

        ↓ Меню




        ↓ Опрос

        Вы добавили сайт в закладки?
        Да
        Нет


        Top 10 за месяц (КПК и мобильные)