.
Авторизация | Регистрация
Хочешь лучшие торренты? Добавь свой email!
Добавить

Торрент скачать бесплатно

» » Черные паруса / Black Sails (2016) HDTVRip [H.264] (сезон 3, серии 1 из 10) LostFilm [MP4|1280x720] торрент скачать бесплатно




    Черные паруса / Black Sails (2016) HDTVRip [H.264] (сезон 3, серии 1 из 10) LostFilm [MP4|1280x720] торрент скачать бесплатно

    Опубликовал: Админ | Дата: 26-01-2016, 14:09 | Просмотров: 110

    Производство: США, ЮАР
    Жанр: Драма, приключения
    Режиссер: Стив Бойум, Кларк Джонсон, Алик Сахаров
    Актеры: Зэк МакГоун, Люк Арнольд, Джессика Паркер Кеннеди, Луиз Барнс, Тоби Стивенс, Ханна Нью, Шон Майкл, Ричард Дж.В. Фёрт, Патрик Листер, Тоби Шмит и др.

    Описание

    1715 год. Золотой век — вершина пиратства в Карибском море. Остров бывшей британской колонии Нью-Провиденс является территорией беззакония, контролируемый самыми известными пиратскими капитанами в истории. Самым грозным из них является капитан Флинт.Но британский флот возвращается в эти воды, угрожая уничтожить Флинта и его команду. Движимый глубокими, сложными, даже романтическими мотивами, Флинт становится союзником с грозной Элеонорой Гатри, дочерью местного вора в законе, который превращает добычу пиратов в прибыль. Вместе они создают план, охотясь за высшей наградой, выиграв которую, они остановят захват своего дома и обеспечат их выживание.Им противостоит ряд соперников: конкурент капитана, завидующий власти Флинта, отец Элеоноры, чьи амбиции на острове приводят к конфликту с дочерью, и молодой моряк, Джон Сильвер, недавно принятый в экипаж Флинта, которому каким-то образом удается постоянно срывать планы своего капитана.

    Дата мировой премьеры: 23 января 2016
    Продолжительность: ~ 00: 52: 00 серия
    Качество видео: HDTVRip 720p
    Перевод: Многоголосый закадровый, профессиональный -LostFilm
    ВНИМАНИЕ! В сериале присутствуют сцены сексуального характера и ненормативная лексика
    Видео: AVC/H.264 (High@L4.1 ), 1280x720 (16: 9), ~4000 Кбит/сек
    Аудио: AAC, 2 канала, 260 Кбит/сек - русский (многоголосый закадровый)
    Код:

    Полное имя : F:Black_Sails_s3_HDTV720p_x264_LostFilm_[NNM-CLUB]Black.Sails.S03E01.720p.WEB.rus.LostFilm.TV.mp4
    Формат : MPEG-4
    Профиль формата : Base Media
    Идентификатор кодека : isom
    Размер файла : 1, 75 Гбайт
    Продолжительность : 1 ч. Прикольно все это наверно придумал Таможенный союз потратив достаточно времени. 0 м.
    Режим общего битрейта : Переменный
    Общий поток : 4177 Кбит/сек
    Коллекция : Черные паруса
    Сезон : 3
    Альбом : Черные паруса, Сезон 3
    Альбом/Исполнитель : Черные паруса
    Часть : 1
    Часть/Положение : 3
    Трек : XIX.
    Трек/Положение : 1
    Исполнитель : Черные паруса
    Жанр : Drama
    Тип содержимого : TV Show
    Дата записи : 2016
    Дата кодирования : UTC 2016-01-24 16:36:22
    Дата пометки : UTC 2016-01-24 16:36:22
    Программа кодирования : Yamb 2.1.0.0 [http://yamb.unite-video.com]/LostCoder
    Правообладатель : LostFilm.TV (c)
    Обложка : Yes
    Примечание : За 20 лет до событий романа Остров сокровищ Стивенсона капитан Флинт, один из самых суровых и властных флибустьеров, оказался на пороге пол
    Part_ID : 301
    rati : (Binary)
    Видео
    Идентификатор : 1
    Формат : AVC
    Формат/Информация : Advanced Video Codec
    Профиль формата :High@L4.1
    Параметр CABAC формата : Нет
    Параметр ReFrames формата : 4 кадра
    Идентификатор кодека : avc1
    Идентификатор кодека/Информация : Advanced Video Coding
    Продолжительность : 1 ч. 0 м.
    Битрейт : 4000 Кбит/сек
    Максимальный битрейт : 6000 Кбит/сек
    Ширина : 1280 пикселей
    Высота : 720 пикселей
    Соотношение сторон : 16:9
    Режим частоты кадров : Постоянный
    Частота кадров : 23, 976 кадра/сек
    Цветовое пространство : YUV
    Субдискретизация насыщенности : 4:2:0
    Битовая глубина : 8 бит
    Тип развёртки : Прогрессивная
    Бит/(Пиксели*Кадры) : 0.181
    Размер потока : 1, 64 Гбайт (94%)
    Заголовок : Imported with GPAC 0.4.6-DEV (internal rev. 5)
    Библиотека кодирования : x264 core 112 r1834 a51816a
    Настройки программы : cabac=0/ref=3/deblock=1:0:0/analyse=0x3:0x113/me=hex/subme=7/psy=1/psy_rd=1.00:0.00/mixed_ref=1/me_range=16/chroma_me=1/trellis=1/8x8dct=1/cqm=0/deadzone=21, 11/fast_pskip=1/chroma_qp_offset=-2/threads=12/sliced_threads=0/nr=0/decimate=1/interlaced=0/constrained_intra=0/bframes=3/b_pyramid=2/b_adapt=1/b_bias=0/direct=1/weightb=1/open_gop=0/weightp=2/keyint=250/keyint_min=25/scenecut=40/intra_refresh=0/rc_lookahead=40/rc=abr/mbtree=1/bitrate=4000/ratetol=1.0/qcomp=0.60/qpmin=0/qpmax=51/qpstep=4/vbv_maxrate=5000/vbv_bufsize=2000/ip_ratio=1.40/aq=1:1.00/nal_hrd=none
    Дата кодирования : UTC 2016-01-23 15:14:30
    Дата пометки : UTC 2016-01-24 16:36:51
    Аудио
    Идентификатор : 2
    Формат : AAC
    Формат/Информация : Advanced Audio Codec
    Профиль формата : LC
    Идентификатор кодека : 40
    Продолжительность : 1 ч. 0 м.
    Вид битрейта : Переменный
    Битрейт : 259 Кбит/сек
    Максимальный битрейт : 339 Кбит/сек
    Каналы : 2 канала
    Расположение каналов : Front: L R
    Частота : 48, 0 КГц
    Метод сжатия : С потерями
    Размер потока : 111 Мбайт (6%)
    Дата кодирования : UTC 2016-01-24 16:36:49
    Дата пометки : UTC 2016-01-24 16:36:51


    Скриншоты для ознакомления




    Черные паруса/Black Sails (2016) HDTVRip [H.264] (сезон 3, серии 1 из 10) LostFilm [MP4|1280x720]
    загрузка...
    Рейтинг →
     (голосов: 1, оценка 5/5, голосовать можно 1 раз )

    Другие торренты по теме:

  • Черные паруса (Black Sails) / (Сезон 1, серии 1-8 из 8) LostFilm (2014) [MP4|1280x720] <HDTVRip H.264> скачать через торрент бесплатно
  • Черные паруса / Black Sails (2015) HDTV [H.264 / 720p-LQ] (сезон 2, серии 1 из 10) (BaibaKo) (обновляемая)
  • Черные паруса (Black Sails) / (Сезон 2, серия 1 из 10) BaibaKo (2015) [MP4|720x400] <HDTVRip [H.264]>
  • Черные паруса / Black Sails (2015) WEB-DL [H.264 / 720p-LQ] (сезон 2, серии 1 из 10) (LostFilm) (обновляемая) скачать через торрент бесплатно
  • Черные паруса (Black Sails) / (Сезон 2, серия 1 из 10) LostFilm (2015) [MP4|1280x720] <HDTVRip [H.264]> скачать через торрент бесплатно
  • Черные паруса / Black Sails (2016) HDTV [H.264 / 720p-LQ] (сезон 3, серии 1 из 10) BaibaKo (обновляемая)
  • Черные паруса / Black Sails (2016) HDTVRip [H.264] (сезон 3, серии 1 из 10) BaibaKo [MP4|720x400]
  • Черные паруса / Black Sails (2017) WEBRip [H.264 / 1080p] (сезон 4, серии 1 из 10) SDI Media (обновляемая)


    • Комментарии (0):

      Информация

      Информация

        Посетители, находящиеся в группе Гости, не могут оставлять комментарии в данной новости.

        ↓ Меню




        ↓ Опрос

        Вы добавили сайт в закладки?
        Да
        Нет


        Top 10 за месяц (КПК и мобильные)